<svg xmlns="http://www.w3.org/2000/svg">
<defs>
<font id="BadScript-Regular" horiz-adv-x="1438" >
  <font-face 
    font-family="Bad Script"
    font-weight="400"
    font-stretch="normal"
    units-per-em="2048"
    panose-1="2 0 0 0 0 0 0 0 0 0"
    ascent="1638"
    descent="-410"
    x-height="1032"
    cap-height="2005"
    bbox="-2103 -1327 3465 2710"
    underline-thickness="102"
    underline-position="-307"
    unicode-range="U+000D-2212"
  />
<missing-glyph horiz-adv-x="1976" 
d="M1227 553l149 199q-45 39 -76 53l-151 -191q-109 87 -199 150q-41 -47 -53 -80l186 -147l-147 -191q2 -9 32 -32.5t38 -22.5l159 180l191 -147q8 2 32 32t23 37q-15 14 -78 68t-106 92zM924 -57q29 23 88 23q2 0 14.5 0.5t13.5 0.5q-27 23 -90 63t-63 52t10.5 19t15.5 12
q-15 15 -15 35t1 30q-163 89 -275 229q-81 101 -120.5 167.5t-42.5 70.5q-63 21 -86 29t-57 19.5t-48 17.5t-74.5 30t-93.5 51.5t-33 45.5t23 18l524 -45q73 15 160 31.5t138 26.5q154 31 201 42q155 38 192 95q113 200 259 200q70 0 115 -14v2l152 53q6 0 6 -4v-2l-51 -141
l143 6q5 0 5 -2t-1 -4l-131 -135l-2 2q-5 -485 -493 -817q0 -24 -11.5 -37t-25.5 -13l-25 -24q132 -47 195 -78l43 1q75 0 127 -38v-5q0 -3 -3.5 -5.5t-4.5 -3.5q-57 26 -79.5 27t-39.5 -1q54 -29 76 -61q-3 -9 -19 -12q-65 65 -127 65q-24 0 -34 -2t-14.5 -2.5t-13.5 -4
t-12.5 -5t-15.5 -7t-17 -5.5h-7q-6 0 -7 10q20 22 33 26t28.5 8.5t26.5 8.5q-48 26 -113 48.5t-65 29.5q0 12 23 30q-15 0 -25.5 14t-13.5 25h-55q-61 0 -113 8q-18 -48 -47 -48q-4 0 -8 1q-24 -13 -31 -20q132 -84 172 -117q7 -2 33.5 -6t40.5 -8q43 -12 73 -53
q0 -8 -4 -10.5t-6 -4.5q-26 24 -43 32.5t-57 14.5q40 -25 55 -80q-3 -8 -8.5 -8h-7.5q-53 84 -109 97q-19 3 -54 3t-89 -14q-6 9 -6 17z" />
    <glyph glyph-name=".notdef" horiz-adv-x="1976" 
d="M1227 553l149 199q-45 39 -76 53l-151 -191q-109 87 -199 150q-41 -47 -53 -80l186 -147l-147 -191q2 -9 32 -32.5t38 -22.5l159 180l191 -147q8 2 32 32t23 37q-15 14 -78 68t-106 92zM924 -57q29 23 88 23q2 0 14.5 0.5t13.5 0.5q-27 23 -90 63t-63 52t10.5 19t15.5 12
q-15 15 -15 35t1 30q-163 89 -275 229q-81 101 -120.5 167.5t-42.5 70.5q-63 21 -86 29t-57 19.5t-48 17.5t-74.5 30t-93.5 51.5t-33 45.5t23 18l524 -45q73 15 160 31.5t138 26.5q154 31 201 42q155 38 192 95q113 200 259 200q70 0 115 -14v2l152 53q6 0 6 -4v-2l-51 -141
l143 6q5 0 5 -2t-1 -4l-131 -135l-2 2q-5 -485 -493 -817q0 -24 -11.5 -37t-25.5 -13l-25 -24q132 -47 195 -78l43 1q75 0 127 -38v-5q0 -3 -3.5 -5.5t-4.5 -3.5q-57 26 -79.5 27t-39.5 -1q54 -29 76 -61q-3 -9 -19 -12q-65 65 -127 65q-24 0 -34 -2t-14.5 -2.5t-13.5 -4
t-12.5 -5t-15.5 -7t-17 -5.5h-7q-6 0 -7 10q20 22 33 26t28.5 8.5t26.5 8.5q-48 26 -113 48.5t-65 29.5q0 12 23 30q-15 0 -25.5 14t-13.5 25h-55q-61 0 -113 8q-18 -48 -47 -48q-4 0 -8 1q-24 -13 -31 -20q132 -84 172 -117q7 -2 33.5 -6t40.5 -8q43 -12 73 -53
q0 -8 -4 -10.5t-6 -4.5q-26 24 -43 32.5t-57 14.5q40 -25 55 -80q-3 -8 -8.5 -8h-7.5q-53 84 -109 97q-19 3 -54 3t-89 -14q-6 9 -6 17z" />
    <glyph glyph-name=".null" horiz-adv-x="0" 
 />
    <glyph glyph-name=".null" horiz-adv-x="0" 
 />
    <glyph glyph-name="nonmarkingreturn" unicode="&#xd;" horiz-adv-x="0" 
 />
    <glyph glyph-name="space" unicode=" " horiz-adv-x="850" 
 />
    <glyph glyph-name="exclam" unicode="!" horiz-adv-x="670" 
d="M557 2253q26 0 35 -35q-3 -82 -26 -218t-47 -344.5t-92 -568.5t-153 -718q-19 -41 -57 -41q-31 0 -35 41q186 792 260 1429q13 103 32 203t24 203q6 20 23 34.5t36 14.5zM150 -47q-41 15 -41 59.5t36.5 74.5t71 30t52.5 -23t18 -58.5t-28.5 -85.5t-74.5 -50
q-17 0 -27 10.5t-10 23t3 19.5z" />
    <glyph glyph-name="quotedbl" unicode="&#x22;" horiz-adv-x="532" 
d="M260 1640q-35 0 -35 38q0 104 88 300q21 41 58 41t37 -30v-10t-30.5 -73.5t-58.5 -215.5q-5 -23 -24 -36.5t-35 -13.5zM522 1987q22 24 55 24t33 -35v-7q0 -4 -19.5 -36t-36.5 -87t-29.5 -98t-26.5 -69t-47 -26t-33 37q0 124 104 297z" />
    <glyph glyph-name="numbersign" unicode="#" horiz-adv-x="1411" 
d="M1245 743l-362 2h-17q-68 -408 -123 -581q-19 -41 -57 -41q-31 0 -35 41q41 128 69 276t56 305q-78 -2 -156.5 -4t-156.5 -8q-32 -113 -101 -393q-18 -75 -20 -156q-3 -24 -22 -40.5t-34 -16.5q-38 0 -38 43q0 129 121 555q-82 -11 -162.5 -27.5t-163.5 -19.5
q-43 4 -43 35q0 17 16.5 37t50 22t76 8t84.5 13l84 14t84 12q20 76 48.5 180t33.5 138q-60 -5 -124.5 -16.5t-112.5 -19t-93 -26.5q-19 -16 -35 -16q-34 0 -38 41q29 90 224 107q47 4 78 9.5t59.5 8.5t56.5 6q6 48 11.5 103.5t17.5 151t36.5 167t67.5 71.5t43 -59
q-3 -24 -25 -43q-17 -72 -29 -200t-22 -185l98 2q86 0 176 -4q61 268 129 420q24 33 56 33t32 -50q-72 -165 -127 -407q158 -10 286 -10t179 4q35 -9 35 -35q0 -66 -135 -66t-385 13q-37 -197 -53 -297h14l363 -2q34 -9 34 -35q0 -19 -14.5 -36t-34.5 -24zM846 1139
q-88 4 -143 4h-81q-26 0 -51 -2q-12 -55 -37 -147l-45 -165q79 5 304 11q17 106 53 299z" />
    <glyph glyph-name="dollar" unicode="$" horiz-adv-x="1147" 
d="M862 1980q16 0 64 -6q22 63 32 125q8 22 26.5 35.5t33.5 13.5q33 0 33 -37q0 -61 -37 -165q114 -64 164 -224q8 -13 8 -31.5t-17.5 -34.5t-35.5 -16q-31 0 -38 45t-35 95.5t-81 81.5q-24 -59 -60 -195t-128 -469q35 -84 72 -169q136 -312 136 -510t-99 -347
q-127 -195 -400 -195q-28 0 -70 5l-24 -95q-23 -41 -56 -41t-37 41l29 107q-246 51 -328 240q-28 65 -28 139q0 139 49.5 239.5t169.5 206.5q20 17 38 17q40 0 40 -33q0 -17 -9 -31q-102 -94 -135 -156q-55 -108 -55 -228t79 -200t204 -108l325 1100q-123 295 -123 439
t72 252.5t221 108.5zM804 212q97 122 97 312q0 91 -40 217t-116 308q-71 -248 -144 -491t-144 -490h37q197 0 310 144zM895 1890q-22 4 -56 4q-73 0 -122 -67t-49 -153q0 -143 67 -339q67 235 96 351.5t64 203.5z" />
    <glyph glyph-name="percent" unicode="%" horiz-adv-x="1028" 
d="M844 1931q19 17 37 17q41 0 41 -33q0 -17 -29 -59t-78.5 -173t-103.5 -300.5t-125 -354.5q-218 -575 -379 -1104q-21 -41 -57 -41q-31 0 -35 41q128 428 383 1112q68 180 90 244q172 496 256 651zM94 1678q0 114 61 176.5t149.5 62.5t144 -55.5t55.5 -144t-54.5 -143
t-145 -54.5t-150.5 47t-60 111zM729 86l70 -4q34 0 61 23.5t27 77t-38 105.5t-87.5 52t-74.5 -26q-44 -46 -44 -78q0 -59 41 -89q8 -13 8 -31.5t-17 -34t-49 -15.5t-54.5 46t-22.5 88q0 88 65 162t156.5 74t148 -71.5t56.5 -148.5q0 -128 -59.5 -176t-151.5 -48
q-45 0 -68.5 5t-23.5 26.5t16 40.5t41 22zM408 1712q0 115 -109 115q-51 0 -81 -33.5t-30 -84t27.5 -70t77.5 -19.5q115 0 115 92z" />
    <glyph glyph-name="ampersand" unicode="&#x26;" horiz-adv-x="1563" 
d="M514 1348q-166 140 -166 332q0 59 32.5 120t87.5 102q110 85 277 85q231 0 365 -119q47 -41 76 -99l2 -12q0 -36 -38 -54q-10 -5 -20 -5q-23 0 -36 33q-26 71 -115 116t-213.5 45t-226 -60t-101.5 -169q0 -139 114 -232q41 -34 101 -55h19q98 0 145 -44q17 -16 17 -39
t-19 -38.5t-45 -15.5q-124 24 -154 39q-174 -20 -298.5 -172.5t-124.5 -355.5q0 -290 162 -483t410 -193t435 150q122 97 172 240q25 72 25 144q0 134 -51.5 214.5t-161.5 135.5q-165 -72 -229 -236q-21 -54 -21 -116t37 -110q8 -11 8 -30.5t-16.5 -36.5t-38.5 -17
q-40 0 -64 68q-20 51 -20 111q0 121 76.5 234.5t191.5 192.5q41 28 135.5 62t143.5 55q174 75 174 219l-19 166q6 20 23.5 34.5t32.5 14.5q55 0 55 -229q0 -34 -22 -85t-67 -99q-101 -104 -278 -157q169 -94 196 -265q9 -52 9 -126q0 -160 -105.5 -308t-276 -236.5
t-331.5 -88.5q-304 0 -493 219.5t-189 544.5q0 157 62.5 279t119.5 179q99 99 236 151z" />
    <glyph glyph-name="quotesingle" unicode="'" horiz-adv-x="289" 
d="M225 1677q0 215 51 344q23 33 46.5 33t34 -9.5t10.5 -18.5v-14q0 -4 -5 -15t-10 -35.5t-9.5 -60.5t-9.5 -87t-11 -99t-24.5 -64.5t-33.5 -16.5q-39 0 -39 43z" />
    <glyph glyph-name="parenleft" unicode="(" horiz-adv-x="582" 
d="M677 1864q127 125 152 125q18 10 33 10q25 0 25 -23t-19 -45t-45.5 -44t-55 -45t-48.5 -46q-381 -436 -481 -1058q-31 -193 -31 -382q0 -384 125 -692q21 -53 64.5 -124.5t43.5 -85.5v-7q0 -25 -20 -46.5t-39 -21.5q-31 0 -79 87q-196 353 -196 851q0 600 280 1131
q90 169 174 276t117 140z" />
    <glyph glyph-name="parenright" unicode=")" horiz-adv-x="555" 
d="M303 1919q7 40 47 61q11 5 26 5t25 -23q7 -73 53.5 -199t56.5 -200q32 -236 32 -329q0 -190 -68.5 -456t-180 -513.5t-231.5 -385.5q-55 -62 -89.5 -101t-60 -66.5t-46.5 -48t-49 -45.5t-68 -60t-102 -90q-22 -13 -39 -13q-29 0 -29 30t93 109q27 23 76.5 64t104.5 95.5
t138 170.5q244 341 368 786q80 285 80 491t-31 322t-66.5 219t-39.5 177z" />
    <glyph glyph-name="asterisk" unicode="*" horiz-adv-x="686" 
d="M287 1204q-37 0 -37 35q0 9 4 23l102 161q-83 -18 -153 -67q-24 -13 -38 -13t-24 11t-10 30.5t25 40.5q91 59 176 84q-15 20 -43.5 79.5t-48.5 84.5q-4 10 -4 27t15.5 34t36 17t39 -21.5t36.5 -53t35 -67t32 -63.5v-2q60 96 94 164q21 31 51 31q37 0 37 -35
q0 -22 -34 -79.5t-54 -92.5q123 13 131 14q50 0 50 -30q0 -17 -14 -35.5t-36 -26.5q-45 -6 -83.5 -8.5t-75.5 -5.5q45 -72 139 -170q8 -10 8 -30t-16.5 -37t-36 -17t-33.5 14q-90 99 -137 166l-86 -137q-17 -25 -47 -25z" />
    <glyph glyph-name="plus" unicode="+" horiz-adv-x="903" 
d="M375 299q-35 0 -35 88t41 268q-11 0 -31 -4t-43.5 -8.5t-58.5 -11.5q-76 -35 -117 -35t-41 31q0 14 6 20q13 22 34 35.5t33.5 13.5t16.5 -4q93 43 199 49h16q3 27 11 58l14 61q4 19 4 53v45q0 53 40 78q12 8 28 8q38 0 38 -49.5t-4.5 -81t-11 -60t-13.5 -55t-12 -53.5h15
q47 0 108.5 -10t95.5 -10t68 4q29 -8 29 -33.5t-41 -50.5q-12 -7 -23 -10l-268 22q-31 -168 -31 -258v-28q-15 -72 -67 -72z" />
    <glyph glyph-name="comma" unicode="," horiz-adv-x="330" 
d="M-41 -381q-37 0 -37 37q0 15 12 35q46 52 96.5 152t59.5 122q0 7 -7 10.5t-7 14.5q-18 -8 -35 -8q-41 0 -41 43q0 36 27.5 71t75.5 35q87 0 87 -111q0 -82 -67.5 -199.5t-128.5 -189.5q-18 -12 -35 -12z" />
    <glyph glyph-name="hyphen" unicode="-" horiz-adv-x="870" 
d="M127 547q-37 0 -37 38q0 32 35 49t87 17t130.5 -10t169 -10t205.5 31h12q19 0 28 -9.5t9 -21.5q0 -96 -408 -96q-95 0 -125 14l-57 2l-39 -6q-4 0 -4 2h-6z" />
    <glyph glyph-name="period" unicode="." horiz-adv-x="256" 
d="M-18 -25q-60 0 -60 71q0 35 29.5 63t64 28t66.5 -24q35 -34 35 -67t-25 -56t-54 -23t-48 8h-8z" />
    <glyph glyph-name="slash" unicode="/" horiz-adv-x="815" 
d="M-236 -887q0 8 38 101.5t140 364.5t164 423l185 459q85 214 218 517.5t195 437.5q111 238 130 334q38 188 69 259t82 80h12q37 0 37 -32t-37 -56q-23 -45 -32.5 -99t-15 -86t-33 -117.5t-194.5 -457.5t-231.5 -526.5t-116 -282t-104.5 -262t-107 -272.5t-131 -336
t-175 -443q-16 -39 -54.5 -39t-38.5 33z" />
    <glyph glyph-name="zero" unicode="0" horiz-adv-x="932" 
d="M795 862q57 -66 57 -206.5t-60 -302t-169.5 -269t-246.5 -107.5t-208 127q-59 106 -59 265q0 255 101 459q76 153 210 218q70 33 133.5 33t94 -14.5t58.5 -35.5t55 -45.5t58 -45.5q8 -13 8 -37.5t-32 -38.5zM741 868q-16 12 -35 31q-85 82 -148 82q-122 0 -204.5 -96.5
t-117.5 -238t-35 -267.5t27.5 -192.5t61.5 -99t92 -32.5q113 0 199 103.5t128.5 243.5t42.5 226.5t-33 168.5q-4 10 -4 30t26 41z" />
    <glyph glyph-name="one" unicode="1" horiz-adv-x="733" 
d="M-102 16q0 56 24 56q136 0 194 5t91 7q31 298 54 402.5t52 201.5q-88 -133 -209 -248q-18 -12 -34 -12q-37 0 -37 37q0 15 12 35q105 107 134.5 146t57 76t55.5 92t54 104.5t51.5 83.5t51.5 34t26 -32v-10t-2 -11l-6 -20h2l-4 -7q-129 -487 -166 -868q90 4 169 4h86
q9 0 28.5 -1.5t40.5 -2.5q34 -9 34 -40.5t-37 -51.5q-12 -6 -24 -6l-141 10l-486 -8q-21 -12 -35 -12q-36 0 -36 36z" />
    <glyph glyph-name="two" unicode="2" horiz-adv-x="1032" 
d="M159 715q-36 0 -36 37q0 69 62 135.5t155 110.5t184 44q285 0 285 -241.5t-377 -618.5q129 -75 179 -87.5t87.5 -12.5t60.5 22t36.5 55.5t20.5 72t15.5 72t21.5 55.5t40.5 22t36.5 -37q-12 -156 -50 -224.5t-82.5 -100t-95 -31.5t-88.5 12.5t-77.5 32t-80.5 43.5t-83 47
q-11 -13 -21.5 -22.5t-41.5 -40.5q-78 -78 -193 -78q-65 0 -113 40q-47 40 -47 88q0 84 50.5 130.5t125 46.5t199.5 -51q5 -4 9 -5.5t9 -3.5q367 367 367 566q0 155 -205 155q-115 0 -206 -58t-91 -134q-8 -19 -25 -30t-31 -11zM47 132q0 -52 76 -52t164 84q-82 35 -132 35
t-79 -21t-29 -46z" />
    <glyph glyph-name="three" unicode="3" horiz-adv-x="930" 
d="M209 227q-41 4 -41 35.5t59 65.5t127 49l66 41q85 50 188 161t103 193t-20 114q-43 70 -150 70q-204 0 -363 -186q-22 -25 -41 -25q-41 0 -41 37q0 80 154.5 171t286 91t201 -71.5t69.5 -157t-51 -174.5q-57 -92 -168 -200q-36 -35 -76 -66q164 -35 260 -177.5t96 -332.5
q0 -297 -160 -489q-182 -218 -542 -218q-191 0 -382 122q-130 83 -187 206q-29 64 -29 114q0 205 80 205q26 0 35 -34q-4 -34 -9.5 -67.5t-5.5 -81.5q0 -103 79 -190.5t200.5 -133.5t257 -46t245 52.5t180.5 139.5q140 172 140 433q0 156 -105 290t-247 134h-12
q-105 -61 -197 -74z" />
    <glyph glyph-name="four" unicode="4" horiz-adv-x="1022" 
d="M643 -29q-516 -6 -561 -6t-45 37q0 19 12 37q88 104 160.5 183.5t173 190.5t198 241.5t216.5 338.5q23 33 55.5 33t32.5 -49q-31 -56 -54 -90q17 -9 17 -29l-4 -39q-12 -301 -99 -756q161 14 187 17q49 0 49 -31t-34.5 -54.5t-96.5 -23.5h-123q-79 -432 -94 -637
q-2 -19 -5 -48q-13 -126 -89 -126q-35 0 -35 37q0 13 8 22t9 26.5t1.5 42.5t44 257t76.5 426zM284 55h118q168 0 255 4q63 400 103 715q-129 -196 -316 -405.5t-272 -311.5q56 -2 112 -2z" />
    <glyph glyph-name="five" unicode="5" horiz-adv-x="1335" 
d="M229 78q-36 0 -36 37q0 13 4 20q159 223 213 342q106 236 106 494q7 23 27 37q20 24 44 24t38.5 -14t29.5 -27q86 -43 344 -43q161 0 277 80q34 23 49 23q35 0 35 -37q0 -53 -132 -110q-88 -39 -142.5 -41.5t-84.5 -2.5q-292 0 -393 41q-17 -330 -215 -633
q112 54 320.5 54t381.5 -150.5t173 -400t-155 -421.5q-178 -196 -501 -196q-238 0 -416 128q-204 147 -204 399q0 104 57 104q21 0 35 -23v-28q0 -232 150 -357t376 -125q383 0 510 286q45 102 45 219q0 209 -135.5 341.5t-331.5 132.5q-132 0 -219.5 -30t-212.5 -111
q-18 -12 -37 -12z" />
    <glyph glyph-name="six" unicode="6" horiz-adv-x="1126" 
d="M1048 1916q43 -36 93 -119.5t50 -113.5q0 -55 -58 -55q-32 0 -37 14q-62 161 -118 206.5t-152 45.5t-162.5 -46t-125.5 -124q-109 -148 -193 -399.5t-120 -511.5q127 188 312 248q62 20 128 20q132 0 214 -116t82 -312q0 -273 -125 -462q-141 -211 -400 -211
q-162 0 -251 132t-89 349q0 150 53 432.5t136 522.5t215.5 405.5t296.5 165.5t251 -71zM201 494q0 -292 125 -391q46 -37 120 -37q144 0 240.5 88.5t139 222t42.5 252.5q0 198 -68.5 276t-184 78t-255.5 -135t-159 -352v-2z" />
    <glyph glyph-name="seven" unicode="7" horiz-adv-x="971" 
d="M819 1024q66 0 66 -89q0 -44 -39 -105q-165 -251 -348 -752h268q35 0 35 -37q0 -22 -19 -39.5t-45 -17.5q-160 16 -262 16h-6q-74 -196 -159.5 -457.5t-104.5 -306.5t-37.5 -67t-46.5 -27q-34 4 -43 29l-4 22q0 61 32 70q56 102 137.5 357.5t123.5 377.5h-54
q-121 0 -204 6q-14 -4 -23 -4q-35 0 -35 37q0 30 25 47l191 -1l130 -1q154 441 338 764q8 14 21 32.5t22 43.5l-518 8q-19 0 -70 -15.5t-73 -15.5q-74 0 -74 69q0 38 35 50t112 12z" />
    <glyph glyph-name="eight" unicode="8" horiz-adv-x="1018" 
d="M45 408q0 253 303 533q86 80 176 163q-72 79 -118 176q-84 178 -84 274q0 194 100 309t272 115q141 0 214 -148q55 -112 55 -208.5t-20.5 -155.5t-54.5 -110q-58 -88 -251 -264q38 -69 84 -148q180 -307 180 -503.5t-116 -339t-314 -142.5q-157 0 -291.5 121.5
t-134.5 327.5zM727 746q-38 84 -158 284q-74 -65 -150 -134q-276 -251 -276 -445q0 -173 86 -280.5t224.5 -107.5t243 106.5t104.5 258.5t-74 318zM682 1884q-272 0 -272 -307q0 -85 59 -210.5t113 -182.5l10 -17l67 66q36 40 73.5 75.5t68.5 73.5q71 87 71 184
q0 163 -66 250q-50 68 -124 68z" />
    <glyph glyph-name="nine" unicode="9" horiz-adv-x="952" 
d="M962 880l-1 -78q0 -56 -35 -176t-95 -231q-20 -86 -39 -186.5t-58 -285.5q-99 -478 -306 -679q-127 -125 -326 -125q-151 0 -235 65t-182 234q-2 5 -2 10v11q3 23 21 41t31 18t17 -5.5t12 -18.5t11 -15q103 -224 243 -247q39 -7 76 -7q165 0 298 155q172 202 256 598
q24 116 36 228q-172 -186 -362 -186q-145 0 -218 140q-58 111 -58 219q0 28 4 55q33 241 142 388q169 222 496 222q95 0 176 -46q27 -15 47 -36q32 -4 39 -14q12 -17 12 -48zM827 874q-56 52 -131 52q-144 0 -253.5 -42.5t-190.5 -158.5t-109 -317q-4 -29 -4 -81t29 -119
q52 -114 182 -114q157 0 302 182q42 53 77 113q22 78 49 242t49 243z" />
    <glyph glyph-name="colon" unicode=":" horiz-adv-x="485" 
d="M301 699.5q-25 -11.5 -53 -11.5t-55 25t-27 72.5t33 94t73.5 46.5t79.5 -32.5t39 -65.5t-12.5 -56.5t-32.5 -42t-45 -30zM76 -39q-22 3 -29 8h-2q-19 0 -41 44t-22 84t27 61.5t68.5 21.5t84.5 -30.5t43 -67.5t-23 -64q-47 -52 -106 -57z" />
    <glyph glyph-name="semicolon" unicode=";" horiz-adv-x="506" 
d="M-55 -246q86 106 117.5 175t31.5 100v2q-5 -19 -23.5 -33t-43 -14t-38.5 22t-14 52.5t40.5 71t79 40.5t69.5 -36.5t31 -67.5q0 -79 -97 -248q-45 -79 -77 -107t-49.5 -28t-28.5 9.5t-11 23.5t13 38zM244 707q-9 -7 -23 -7q-24 0 -38.5 44.5t-14.5 85.5t27.5 69.5
t71.5 28.5t80 -29.5t36 -74.5t-36 -82t-81 -37h-10q-6 0 -12 2z" />
    <glyph glyph-name="less" unicode="&#x3c;" horiz-adv-x="934" 
d="M809 1020q32 0 32 -19q0 -46 -36.5 -63t-268.5 -260l-30 -29q-2 0 -43.5 -33t-66.5 -55.5t-26 -38t15 -44t40 -62.5t53 -70t55.5 -67.5t47 -55.5t26 -32.5t5.5 -26.5t-21.5 -36.5t-40 -18.5t-28.5 4q-11 14 -34 40q-222 245 -222 328.5t136 182.5q33 24 57 45l114 108
q4 3 9.5 11t7.5 8q0 -2 -1 -3.5t-1 -3.5q23 27 46 55q86 104 165 136h10z" />
    <glyph glyph-name="equal" unicode="=" horiz-adv-x="934" 
d="M705 709q-266 14 -338 14q-172 0 -197 -29q-18 -12 -35 -12q-37 0 -37 37q0 102 328 102t328 -53q0 -19 -14.5 -36t-34.5 -23zM791 469l-299 12q-212 0 -316 -63q-12 -4 -22 -4q-35 0 -35 37q0 45 75 77q108 45 310 45q77 0 153.5 -4t147.5 -6q35 -10 35 -35
q0 -18 -14.5 -35.5t-34.5 -23.5z" />
    <glyph glyph-name="greater" unicode="&#x3e;" horiz-adv-x="934" 
d="M537 891l2 2q0 -6 6 -6l4 -4l4 -15q129 -219 212 -269q62 -37 62 -67.5t-21.5 -53.5t-44.5 -44t-49.5 -45t-52 -47t-47.5 -42.5t-53 -51.5q-95 -96 -197 -152q-12 -4 -22 -4q-29 0 -29 30.5t38.5 53.5t73 52t66 60.5t62 63.5t63.5 62l97 86q-28 26 -58.5 49t-66 60.5
t-68.5 95.5t-67 112v8q0 28 20 49t39.5 21t26.5 -4z" />
    <glyph glyph-name="question" unicode="?" horiz-adv-x="913" 
d="M180 1473q0 -25 -28 -25q-91 0 -91 177t169 280q142 86 315 86q237 0 319 -218q29 -79 29 -174t-12 -153t-33.5 -107.5t-50.5 -92.5t-62.5 -87t-70.5 -91q-95 -125 -152.5 -249t-101.5 -450q-3 -25 -22 -41.5t-36 -16.5q-33 0 -37 43q51 289 78 382.5t70.5 170.5
t166.5 250q167 239 167 419t-85 260q-64 58 -156 58q-176 0 -292.5 -76t-116.5 -202q0 -22 16.5 -76t16.5 -67zM354 172q72 0 72 -60q0 -28 -14 -75q-31 -59 -78 -74q-63 0 -86 46q-8 16 -8 56t39.5 73.5t74.5 33.5z" />
    <glyph glyph-name="at" unicode="@" horiz-adv-x="1706" 
d="M666 293q-136 0 -136 246.5t64 458.5q136 444 342 444q30 0 55 -15.5t39.5 -25t31.5 -15.5q34 -10 34 -40t-38 -48q-12 -6 -28 -6t-57 27t-70.5 27t-63.5 -33.5t-72 -104t-90 -261.5t-52 -369.5t55 -178.5q102 0 285 473q11 30 23 76q48 191 118 191q47 0 47 -193
l-2 -198q0 -180 40 -236q17 -23 46 -23q128 0 228 89q173 153 173 440q0 80 -21.5 186.5t-62.5 199.5q-82 192 -231.5 305.5t-339.5 113.5q-263 0 -457.5 -130t-298.5 -346t-104 -466q0 -652 387 -865q159 -88 364 -88q263 0 458 160q105 86 181 178.5t125 149.5
q20 16 41 16q35 0 35 -35q0 -21 -16 -41q-56 -64 -108.5 -128t-108.5 -122q-126 -132 -275.5 -204t-361 -72t-390.5 108q-304 183 -400 596q-34 146 -34 302q0 297 109.5 541t325 395t518.5 151q339 0 543 -256t204 -715q0 -164 -110 -341q-81 -131 -210 -188
q-68 -30 -144 -30q-129 0 -173 127q-28 81 -28 244v72q-149 -418 -311 -519q-38 -24 -78 -24z" />
    <glyph glyph-name="A" unicode="A" 
d="M211 653q79 -10 266 -18q173 261 443 769q169 318 219 548q8 21 26 35t35 14q26 0 29 -31q16 -16 14.5 -36t-12.5 -31q-23 -81 -32.5 -169.5t-39 -327.5t-29.5 -402t25 -396q123 -13 133 -27t10 -31t-18.5 -34.5t-40 -16t-37.5 4t-33 4.5v-10q0 -6 3.5 -31t4 -69t4 -78.5
t11.5 -71.5t23.5 -106.5t15.5 -91.5t-16.5 -39t-37 -17t-35.5 29.5t-25 75.5t-16.5 103t-11.5 112.5t-8.5 103t-7.5 74.5l-6 28q-136 14 -275 16t-278 5q-264 -400 -498 -506q-78 -39 -122 -39q-54 0 -54 51q0 26 18 45t37.5 19t30.5 -17l2 2q214 83 404 336q29 40 47 63
t35 48q-155 8 -232 16q-28 11 -28 33t17.5 40t39.5 21zM1057 618q-17 134 -17 363.5t43 556.5q-121 -251 -268.5 -508.5t-236.5 -396.5q120 -2 240.5 -3.5t238.5 -11.5z" />
    <glyph glyph-name="B" unicode="B" horiz-adv-x="1053" 
d="M6 -82q4 32 14 82l-58 12q-124 25 -128 66q-1 5 -1 16.5t11.5 25t22 13.5t21.5 -3q14 -5 47 -20.5t106 -15.5l53 223q31 158 69.5 317.5t76.5 323.5l-62 3q-31 0 -31 34q0 49 111 49q45 191 80 415t90 399q-37 -16 -68 -43q-18 -37 -53 -37q-9 0 -22 8.5t-13 32.5
q0 47 60 83.5t137 51.5q13 21 31.5 21t31.5 -17q190 -6 305 -130.5t115 -332.5q0 -170 -125.5 -314t-281.5 -165q174 -11 305 -152.5t131 -293.5q0 -292 -223.5 -439t-605.5 -147l-43 2q-7 -29 -7 -49q-5 -26 -22.5 -43t-33.5 -17q-35 0 -40 41zM127 80q27 -4 80 -4
q327 0 503.5 131t176.5 350q0 153 -140 273t-311 120q-44 0 -108 4q-97 -421 -121.5 -536t-31.5 -141.5t-15 -58.5l-17 -68q-9 -36 -16 -70zM757.5 1772q-94.5 94 -245.5 98q-50 -165 -96.5 -446.5t-67.5 -376.5q211 14 357.5 138.5t146.5 308.5t-94.5 278z" />
    <glyph glyph-name="C" unicode="C" horiz-adv-x="1098" 
d="M887 256q35 0 35 -37q0 -28 -31 -51q-47 -32 -95 -68q-174 -130 -320 -130q-82 0 -156 42q-157 88 -225 317q-34 115 -34 219q0 171 54.5 407.5t156.5 477t244 401.5t302 161t269 -133.5t109 -272.5q-3 -21 -21 -39t-36 -18t-27 12q-13 18 -18 66q-16 127 -91 206.5
t-187 79.5t-239 -151q-169 -200 -290 -566.5t-121 -579t72 -355.5q88 -174 254 -174q122 0 280 114q44 32 71 52t44 20z" />
    <glyph glyph-name="D" unicode="D" horiz-adv-x="1370" 
d="M43 -72q0 20 4 58q-29 6 -59 11q-130 21 -134 61q-1 5 -1 16.5t11.5 25t22 13.5t21.5 -3q14 -5 49.5 -21.5t101.5 -16.5q228 1122 443 1763q-125 -42 -226 -106q-13 -5 -22 -5q-35 0 -35 37q0 30 25 47q149 92 297 134q19 26 39.5 26t27.5 -10q96 22 215.5 22t222.5 -51
q291 -145 291 -643q0 -575 -287 -926q-199 -242 -526 -334q-166 -46 -368 -46h-13q-7 -67 -32 -85q-11 -8 -29 -8q-39 0 -39 41zM1241 1262q0 620 -467 620q-96 0 -174 -20q-173 -542 -329 -1258q-54 -247 -113 -536q358 0 602 161.5t362.5 432.5t118.5 600z" />
    <glyph glyph-name="E" unicode="E" horiz-adv-x="1145" 
d="M504 1931q200 51 624 51q60 0 99 -6t39 -30q0 -35 -28 -54q-9 -6 -21 -6h-138q-431 0 -590 -53q-39 -138 -93.5 -406t-78.5 -366q66 -8 280 -8t286 4q35 -10 35 -33q0 -41 -40.5 -54.5t-129.5 -13.5l-451 11q-35 -124 -100 -425.5t-109 -449.5l791 -16q102 0 141 4
q35 -10 35 -34q0 -42 -46 -55q-31 -9 -122.5 -9t-209 3.5t-227 7.5t-202 7.5t-152.5 3.5l-69 -6q-35 0 -46.5 14.5t-11.5 27.5t7 24t18 35.5t25 65.5q26 77 54.5 200t108 503t199.5 922q-33 3 -33 39.5t60 68.5q0 64 61 64q30 0 35 -31z" />
    <glyph glyph-name="F" unicode="F" horiz-adv-x="975" 
d="M209 1094q30 -4 53 -4h39q15 0 31 2l6 51q31 261 96 563q-346 -92 -407 -162q-20 -12 -35 -12q-37 0 -37 37q0 99 420 213q50 13 82 22q19 80 35 135q21 31 51 31q37 0 37 -35q0 -14 -9 -28l-16 -76q477 120 1098 129q35 -10 35 -35q0 -18 -15 -35.5t-35 -23.5
q-621 -9 -1103 -133q-29 -144 -58 -286.5t-45 -289.5l-6 -55l113 12q156 14 305.5 17.5t204.5 5.5q30 -12 30 -33t-16.5 -38.5t-38.5 -21.5q-80 -4 -212 -6.5t-282 -13.5l-116 -14q-48 -363 -146 -822q-20 -91 -43 -200q-19 -41 -57 -41q-31 0 -35 41q114 541 142.5 727.5
t41.5 283.5q-17 -2 -33 -2h-34q-44 0 -74.5 7t-30.5 32q0 19 19 37.5t45 20.5z" />
    <glyph glyph-name="G" unicode="G" horiz-adv-x="1374" 
d="M981 117q-180 -148 -471 -148q-152 0 -264 98q-146 127 -186 368q-11 70 -11 136q0 233 122 595q84 249 214 455.5t297 293.5q87 45 178 45q173 0 275 -104t133 -279q-3 -22 -21.5 -39.5t-40 -17.5t-32.5 28q-24 67 -48 124q-78 192 -266 192q-151 0 -294 -144
q-184 -188 -303.5 -538t-119.5 -567t71 -362q94 -192 310 -192q355 0 483 197q46 71 60 160q-3 11 -3.5 22t-24.5 41t-98.5 103.5t-137.5 117.5q-132 -27 -299 -49q-41 4 -41 37q0 26 24 47q136 97 232 97q58 0 115 -31q246 54 557 153q49 0 49 -34q0 -10 -8 -31
q-262 -429 -398 -940q-68 -257 -108.5 -474.5t-65.5 -336.5q-3 -25 -22 -41.5t-35 -16.5q-33 0 -37 44q68 432 115.5 621.5t99.5 369.5zM932 729q92 -88 106.5 -103t41.5 -40t48 -54q38 79 81.5 153t86.5 149q-181 -62 -364 -105z" />
    <glyph glyph-name="H" unicode="H" horiz-adv-x="1460" 
d="M-211 608l4 -18q0 -23 -16.5 -40.5t-36.5 -17.5q-43 0 -43 60q0 121 242 266q83 49 134.5 68t106 43t93 36.5t49.5 16.5q43 180 66 374t35.5 308.5t27.5 228.5q6 49 59 49q22 0 29.5 -8t5.5 -26q-24 -287 -123 -899q308 79 780 100q67 508 81 565q44 178 48 240
q6 20 23.5 34.5t36.5 14.5q25 0 34 -35q-3 -55 -19 -124l-25 -108q-18 -78 -43 -267.5t-42 -317.5l467 14q35 -9 35 -35q0 -18 -14.5 -35.5t-34.5 -23.5q-116 -5 -232 -7t-235 -5q-18 -146 -53 -322t-66.5 -349.5t-38.5 -352.5q-3 -25 -21.5 -41.5t-37.5 -16.5q-31 0 -35 43
q7 185 39 360.5t53 281t39 212.5l29 181q-475 -19 -793 -105q-62 -251 -132.5 -496t-129.5 -483q-21 -41 -57 -41q-31 0 -35 41q56 230 124 468.5t130 482.5q-262 -87 -416 -209q-8 -6 -23 -17q-69 -51 -69 -84v-4z" />
    <glyph glyph-name="I" unicode="I" horiz-adv-x="555" 
d="M315 1874q-39 0 -39 38q0 17 19 34.5t45 19.5h175q104 0 230 -2q31 -11 31 -32t-16 -38t-39 -22h-65q-28 0 -78 2q-296 -1190 -404 -1782q189 -5 206 -38q5 -8 5 -21t-17.5 -31.5t-41.5 -21.5q-56 0 -116.5 9t-93.5 13t-80 4t-99 -16h-11q-21 0 -31 10.5t-10 24.5
q0 69 193 69h8q85 456 215 1009t180 771q-15 -1 -25 -1h-54z" />
    <glyph glyph-name="J" unicode="J" horiz-adv-x="1044" 
d="M983 1962q13 8 25.5 8t25.5 -8q11 8 24 8q29 0 38 -35q-60 -224 -124 -559.5t-83 -433.5t-48.5 -252.5t-91.5 -323t-171 -272.5q-131 -121 -335.5 -121t-316.5 238q-59 125 -59 154.5t16.5 48t30.5 18.5q36 0 42 -27q16 -70 57 -151t104.5 -137t160 -56t177.5 54.5
t139 148.5q96 157 168 496q15 74 34.5 166.5t40.5 194t43 206.5t43 203.5t39.5 185.5t32.5 152q-72 -41 -148 -41t-190 30.5t-176 36.5q-28 13 -28 34t17.5 39.5t39.5 21.5q52 -6 161.5 -36t177 -30t134.5 39z" />
    <glyph glyph-name="K" unicode="K" horiz-adv-x="1255" 
d="M1241 1980q35 0 35 -34q0 -21 -16 -41q-154 -184 -465.5 -535t-415.5 -473q28 -287 168 -537q98 -174 235 -248q70 -38 144 -38t114 15t78 73q20 16 38 16q40 0 40 -36t-61 -89t-113 -62t-120.5 -9t-148.5 39.5t-145 106.5q-119 120 -198.5 311t-112.5 382
q-22 -25 -42 -43t-34 -41q-104 -469 -141 -698q-5 -25 -23 -41t-35 -16q-32 0 -36 43q92 509 229.5 1100t190.5 825q8 21 26 35t32 14q34 0 34 -37v-12q-50 -257 -110.5 -518.5t-119.5 -522.5q114 129 430 481t502 574q20 16 41 16z" />
    <glyph glyph-name="L" unicode="L" horiz-adv-x="928" 
d="M37 2q-10 -4 -20.5 -4t-19.5 13.5t-9 44t30 77.5t41 93.5t54 196.5t80 352t110 541.5t125 594.5q6 20 24 34.5t35 14.5q27 0 35 -35q-46 -203 -129 -630.5t-120 -580.5t-67.5 -309t-72.5 -294q218 -37 354 -37h43l180 8q38 0 134 12q35 -9 35 -35q0 -17 -15 -35t-35 -24
q-142 -14 -274 -14z" />
    <glyph glyph-name="M" unicode="M" horiz-adv-x="1753" 
d="M1567 1933q27 49 59.5 49t32.5 -30v-6q-61 -1017 -68 -1870q13 -26 -1 -52q-24 -49 -56 -49q-39 0 -42 69q-1 20 -1 127t5.5 304t13 395.5t15.5 396t13 390.5q-99 -221 -343.5 -686.5t-328.5 -634.5q-23 -43 -52 -43t-40 29q-52 240 -158 715t-145 669
q-67 -340 -212 -938t-179 -750q-20 -41 -57 -41q-31 0 -35 41q65 357 221 1004.5t215 908.5q6 20 23.5 34.5t32.5 14.5q29 0 38 -34q85 -368 171.5 -785t141.5 -651q137 236 254 469t230.5 460t251.5 494z" />
    <glyph glyph-name="N" unicode="N" horiz-adv-x="1329" 
d="M439 1985q23 0 35.5 -14t19.5 -51q34 -167 206.5 -826t251.5 -936q47 266 160 853.5t174 927.5q7 22 29.5 36t41.5 14t20 -12.5t1 -37.5q-127 -613 -226 -1171t-115.5 -649.5t-21.5 -102t-19.5 -25t-39 -14.5t-52.5 47q-27 49 -64 198t-173.5 664.5t-215.5 844.5
q-47 -215 -165.5 -788t-203.5 -923q-9 -40 -52.5 -40t-43.5 37q0 12 69.5 298.5t206.5 957.5t145.5 691.5t31.5 20.5z" />
    <glyph glyph-name="O" unicode="O" horiz-adv-x="1270" 
d="M426 -45q-365 0 -365 649q0 439 169 810q183 405 477 405q114 0 215 -82q18 -20 18 -41q0 -49 -33 -49q-8 0 -47 21q-91 50 -185 50q-123 0 -246 -160.5t-199 -412.5t-76 -498q0 -475 176 -575q42 -23 113 -23t149 35q215 99 361 418q92 201 140 428t48 439.5t-79 374.5
q-57 114 -148 140q-46 12 -87.5 20t-70.5 18t-29 30q0 38 51 45q401 0 450 -525q9 -89 9 -192q0 -220 -59.5 -454.5t-169 -433.5t-259 -318t-323.5 -119z" />
    <glyph glyph-name="P" unicode="P" horiz-adv-x="1096" 
d="M268 809q-174 56 -174 100q0 25 17 37t36 12t37 -5t36 -12t36 -15.5t33 -14.5l205 961q-91 -28 -134 -105q-18 -24 -47 -24q-37 0 -37 35q0 7 5 22q72 137 243 170q22 41 51.5 41t34.5 -31h8q229 0 359.5 -152.5t130.5 -340.5q0 -316 -161 -507q-174 -208 -490 -208
q-49 0 -103 14q-23 -115 -72.5 -344t-78.5 -395q-5 -25 -23 -41t-34 -16q-33 0 -37 43q34 197 86.5 437.5t72.5 338.5zM375 881q48 -13 145.5 -13t193 46t164.5 124q144 166 144 400q0 182 -116 316t-316 134z" />
    <glyph glyph-name="Q" unicode="Q" horiz-adv-x="1321" 
d="M2277 -549q50 0 50 -31q0 -17 -14 -35t-36 -26q-212 -40 -397.5 -68t-341.5 -28q-330 0 -618 155q-348 187 -668 598q-102 84 -146.5 244.5t-44.5 319.5q0 327 70.5 610.5t216.5 453.5q171 199 418 199q44 0 89.5 -12t53.5 -16q5 -8 11 -11.5t6 -17.5t-17.5 -29.5
t-38.5 -15.5t-67 14t-66 14q-177 0 -313 -177q-190 -246 -245 -714q-17 -144 -17 -288q0 -543 305 -543q149 0 299 150q285 289 388 792q40 200 40 397t-87 356q-99 181 -263 181q-81 0 -150 -20q-41 4 -41 34q0 78 190 78t316.5 -184.5t126.5 -376.5q0 -377 -100 -719
t-291 -563t-451 -221q-6 0 -11 1t-11 1q521 -596 1126 -596q166 0 345.5 28t383.5 66z" />
    <glyph glyph-name="R" unicode="R" horiz-adv-x="948" 
d="M334 934q0 61 34 61q20 0 26 -6t22.5 -18.5t94 -12.5t161 44t144.5 118q128 157 128 373q0 168 -81.5 284.5t-213.5 116.5q-105 0 -160 -16l-378 -1847q-11 -35 -57 -35t-46 33q0 9 3 20.5t12 56.5q22 113 149.5 721.5t216.5 1003.5q-30 -19 -72 -57q-2 -22 -21 -38
t-44 -16l-25 6q-28 13 -28 42q0 56 65.5 103.5t163.5 72.5q36 86 66 86q24 0 36 -68q43 6 82 6q215 0 325 -152q91 -126 91 -333q0 -266 -156.5 -443.5t-437.5 -177.5q0 -342 116 -667q135 -383 410 -565q210 -140 495 -140t521 192q71 59 148 128q8 8 26 8q37 0 37 -37
q0 -21 -16 -41q-152 -157 -297 -235q-198 -107 -447.5 -107t-484.5 144q-424 262 -559 882q-49 225 -49 510z" />
    <glyph glyph-name="S" unicode="S" horiz-adv-x="1147" 
d="M862 1980q239 0 316 -258q8 -13 8 -31.5t-17.5 -34.5t-35.5 -16q-31 0 -37 38q-14 90 -76 153t-158 63t-145 -67t-49 -158t24.5 -187t61.5 -192t79.5 -192t79.5 -193q86 -225 86 -404.5t-99 -328.5q-127 -195 -400 -195q-209 0 -361.5 104t-152.5 298t116 335
q42 51 103 105q20 17 38 17q40 0 40 -33q0 -17 -9 -31q-102 -94 -135 -156q-55 -108 -55 -208t35 -160t93 -100q114 -80 296.5 -80t295.5 144q97 123 97 300.5t-166 563.5t-166 536.5t72 259t221 108.5z" />
    <glyph glyph-name="T" unicode="T" horiz-adv-x="1186" 
d="M717 1862q-234 6 -322.5 6t-191.5 -6q-43 4 -43 34q0 57 104 64q29 2 58 2l419 -8q29 86 78 86q29 0 35 -35l4 -41l-2 -10q57 2 101.5 5t83 5.5t115.5 8t170 5.5h74q13 0 27 2q35 -9 35 -34q0 -62 -100 -62q-130 0 -278 -10t-269 -12q-34 -169 -82.5 -380.5
t-144.5 -696.5t-148 -805q-5 -25 -22.5 -41.5t-33.5 -16.5q-34 0 -38 43q61 506 270 1396q30 130 46 190t21 92t10.5 68.5t11 75t12.5 75.5z" />
    <glyph glyph-name="U" unicode="U" horiz-adv-x="1309" 
d="M1346 1968q36 0 36 -35q0 -21 -22 -73.5t-37 -106.5t-39.5 -159t-51 -225.5t-54.5 -248.5q-101 -474 -155 -636t-97 -243q-138 -261 -450 -261q-168 0 -272 116t-104 277q0 70 17 119q35 198 65.5 377.5t82 461t141.5 606.5q21 31 44 31q44 0 44 -35q-2 -12 -6.5 -24.5
t-8.5 -24.5l-39 -125q-44 -213 -111.5 -587.5t-105 -558t-37.5 -261.5q0 -118 76 -198t215 -80q218 0 325 132q59 72 86 152l44 129q68 207 173.5 699.5t168.5 701.5q11 37 32 58.5t40 21.5z" />
    <glyph glyph-name="V" unicode="V" horiz-adv-x="1094" 
d="M162 1927q6 20 23.5 34.5t32.5 14.5q29 0 38 -34q31 -322 126.5 -917t129.5 -882q356 562 498 982q106 314 106 569q0 72 -14 156t-21 135q0 26 18 44.5t35 18.5q35 0 42 -35q11 -74 22.5 -147t11.5 -185q0 -234 -106 -550.5t-263 -610t-332 -520.5q-25 -33 -45.5 -33
t-31.5 29q-17 112 -33 270t-104 729t-133 932z" />
    <glyph glyph-name="W" unicode="W" horiz-adv-x="1559" 
d="M928 1440q4 -120 4 -164v-178q0 -494 54 -762q25 -121 67 -217q310 561 415 931q78 273 78 530t-140 530q-101 195 -261 280q-83 43 -184 43q-30 0 -51.5 -12.5t-32.5 -18.5l-31 -94q-20 -41 -58 -41q-30 0 -34 41q6 19 10 39.5t10 40.5q38 141 216.5 141t330.5 -145.5
t238 -361.5t86 -384q0 -736 -500 -1550q-66 -108 -112 -108t-105 208q-90 334 -90 926q-155 -541 -334 -901q-32 -63 -62 -123q-61 -121 -127 -121q-18 0 -30.5 17.5t-12.5 48.5q0 288 -26.5 534t-45 390t-45 386.5t-26.5 518.5q0 63 25.5 81.5t42.5 18.5q30 0 30 -37
l-10 -127q0 -64 8.5 -160.5t15 -239t62.5 -581t68 -676.5q45 97 83.5 179.5t73.5 164.5q137 322 306 955q-3 102 -3 238t19.5 204t67.5 68q57 0 57 -185q0 -123 -47 -327z" />
    <glyph glyph-name="X" unicode="X" horiz-adv-x="1286" 
d="M395 1880q-28 0 -28 35t26.5 61.5t40.5 26.5h18q4 0 13 -3.5t32.5 -71.5t54.5 -179.5t69 -257.5t81 -307q324 459 550 710q69 76 90 82t35 6t25 -9t11 -24t-27 -49t-162.5 -192t-486.5 -653q215 -783 346 -1041q0 -29 -20.5 -50t-43.5 -21t-32 14q-2 0 -2 -2
q-12 48 -22 95.5t-25 92.5q-125 279 -276 803q-158 -230 -320.5 -466.5t-345.5 -479.5q-17 -27 -46 -27q-65 0 -65 50l2 10q211 268 559 779q90 132 181 263q-56 196 -108.5 388t-112.5 378l-9 39h-2z" />
    <glyph glyph-name="Y" unicode="Y" horiz-adv-x="881" 
d="M172 -61q-7 -17 -37 -17q-37 0 -37 37q0 49 72 66q40 9 77.5 17.5t76.5 16.5q47 131 66 248.5t29 196t23 170.5q-88 114 -226 900q-35 202 -54 343q0 26 15 45.5t38 19.5t45 -18q8 -11 8 -27.5t-10 -29.5q12 -86 25 -182q89 -656 206 -947q46 102 150 373.5t200.5 464
t225.5 348.5q13 16 35 16q41 0 41 -34q0 -22 -17 -41q-166 -178 -339 -619q-47 -119 -122.5 -319t-111.5 -271q-31 -120 -67 -313t-66 -309q52 6 102 6q199 0 199 -55q0 -22 -20.5 -39t-45.5 -17q-63 17 -162.5 17t-200 -24.5t-112.5 -24.5h-6v2z" />
    <glyph glyph-name="Z" unicode="Z" horiz-adv-x="981" 
d="M1247 1952q0 -20 -8 -33q-550 -873 -1198 -1769q24 8 81 8q100 0 286.5 -183.5t370.5 -284t369 -100.5t347 101q21 13 47.5 35t72 59t75.5 37t30 -33t-50 -76q-87 -73 -144 -102q-246 -119 -418 -119q-248 0 -551 222q-160 118 -214 176.5t-93 93.5q-95 84 -182 84
q-34 0 -78.5 -26t-66 -38t-38.5 -12q-37 0 -37 37q0 16 13 37q130 190 285 400.5t320 439.5q407 567 646 988l-45 -4q-268 -20 -561 -20h-150q-122 0 -190 12q-29 11 -29 40t37 47q11 5 23 5l338 -12q265 0 404.5 15.5t223.5 15.5t84 -41z" />
    <glyph glyph-name="bracketleft" unicode="[" horiz-adv-x="588" 
d="M766 1853q-14 0 -225 19q-243 -1141 -313 -1488.5t-109.5 -541t-61.5 -385.5q13 -6 56 -6t180 34t164.5 34t27.5 -23q-2 -17 -18.5 -39t-50 -31t-137.5 -38t-175 -29t-105.5 7.5t-43.5 35.5q22 204 63 406q227 1138 443 2121q9 20 30 34.5t37 14.5t21 -10
q65 -3 126 -10.5t126 -9.5q26 -5 26 -31.5t-38 -52.5q-11 -7 -23 -11z" />
    <glyph glyph-name="backslash" unicode="\" horiz-adv-x="815" 
d="M997 -922q-41 7 -62 32t-37 62t-27 81.5t-20 87t-16.5 79.5t-37.5 118t-92.5 215t-200.5 449.5t-213 506.5l-185 458q-31 76 -105 270.5t-132 346t-81.5 207.5t-23.5 63q0 35 38.5 35t54.5 -39q98 -245 341 -870t384.5 -940.5t246.5 -553.5t121 -334q6 -31 14.5 -84.5
t32.5 -101.5q37 -21 37 -54.5t-37 -33.5z" />
    <glyph glyph-name="bracketright" unicode="]" horiz-adv-x="674" 
d="M-25 -356q-36 0 -36 37q0 29 53 83.5t85 85.5q103 100 181 247q207 387 207 789.5t-193 764.5q-17 32 -61.5 113.5t-65.5 154.5q0 25 17 45.5t37.5 20.5t36.5 -23q22 -77 95 -203t97 -195q72 -205 103 -330t31 -263v-9q0 -264 -60 -503t-166.5 -399t-134.5 -194.5
t-51 -59.5t-56 -60t-84 -90q-18 -12 -35 -12z" />
    <glyph glyph-name="asciicircum" unicode="^" horiz-adv-x="1067" 
d="M905 2554q0 -9 -4 -23l-22 -41q-2 -4 -2 -10q13 -45 28 -99t45 -148.5t82 -175.5q66 -106 150 -136q16 -13 16 -31.5t-25.5 -38.5t-52.5 -20q-136 51 -220 245q-23 54 -44.5 106t-44 103t-29.5 105l-61 -66q-48 -53 -101 -114q-208 -239 -366 -303q-12 -4 -23 -4
q-26 0 -26 24q0 46 59 69q121 50 444 427q38 45 66 76l41 45q0 2 13.5 19t45 17t31.5 -26z" />
    <glyph glyph-name="underscore" unicode="_" horiz-adv-x="1335" 
d="M176 -86q-194 0 -194 47q0 27 18.5 45.5t47 18.5t65.5 -8.5t81 -8.5t92 3t143.5 6.5t403 3.5t482.5 12q35 -10 35 -35q0 -19 -15 -36t-35 -23q-154 -11 -444 -11z" />
    <glyph glyph-name="grave" unicode="`" horiz-adv-x="567" 
d="M113 2494q0 26 17.5 45t34.5 19q36 0 42 -35q22 -122 182 -328q8 -10 8 -29.5t-16.5 -37t-35 -17.5t-34.5 15q-166 216 -198 368z" />
    <glyph glyph-name="a" unicode="a" horiz-adv-x="920" 
d="M150 0q-117 0 -117 147t109.5 360.5t257.5 369t241.5 155.5t106.5 -82q4 -25 6 -53q9 6 22 6q47 0 47 -45v-8q0 -3 -25 -90t-57 -290t-32 -347q9 -6 21 -13.5t30 -23t18 -36.5t-13 -37.5t-37 -16.5q-49 0 -88.5 50t-39.5 108q0 125 68 430q-85 -178 -220 -343
t-186.5 -203t-111.5 -38zM135 143q0 -37 31 -37q22 0 37 15q207 178 371 493q93 180 98.5 207t5.5 46t-10 36t-28 17t-53 -19q-77 -42 -189.5 -179t-187.5 -298t-75 -281z" />
    <glyph glyph-name="b" unicode="b" horiz-adv-x="805" 
d="M530 1921l-4 -14q-53 -348 -114.5 -626t-108.5 -505q63 113 106 160q86 94 167 94t124 -62t43 -130q0 -148 -46.5 -351.5t-127.5 -337.5q-101 -169 -231 -169q-94 0 -140 84t-46 194t15.5 212t33.5 216t34.5 208.5t31.5 174.5t30.5 155.5t55.5 269t83 439.5q17 33 41 33
q53 0 53 -45zM256 258q0 -174 82 -174q75 0 148 122q99 165 138 409q11 69 11 146.5t-14 123t-58 45.5q-65 0 -171 -153t-121 -301.5t-15 -217.5z" />
    <glyph glyph-name="c" unicode="c" horiz-adv-x="694" 
d="M162 258q0 -182 133 -182q66 0 124 64q22 25 41 45t39 20q40 0 40 -35q0 -64 -82 -129.5t-185.5 -65.5t-157 76.5t-53.5 172.5q0 179 66.5 371t175 322t229.5 130q88 0 116 -63q7 -17 16.5 -43.5t21.5 -33.5q8 -13 8 -31.5t-17 -34.5t-38 -16q-43 0 -55 63.5t-67 63.5
q-77 0 -159.5 -117t-139 -284t-56.5 -293z" />
    <glyph glyph-name="d" unicode="d" horiz-adv-x="899" 
d="M676 942l98 430q10 46 48.5 237.5t56.5 266.5l4 25q0 26 17.5 44.5t36.5 18.5q44 0 44 -47v-9q0 -49 -70.5 -373t-91.5 -456t-79.5 -369t-73.5 -320t-29 -140.5t-14 -114.5t18 -115q-3 -24 -22 -40.5t-35 -16.5q-26 0 -45 61.5t-19 103t12 97.5q-41 -124 -106 -183.5
t-170.5 -59.5t-150 86.5t-44.5 169.5q0 306 116 518q54 98 95.5 145t106.5 90t160 43t137 -92zM622.5 724.5q4.5 22.5 4.5 74t-30 100.5t-85 49q-98 0 -179.5 -123.5t-130 -288t-48.5 -277.5t64 -161q21 -16 56 -16q71 0 152 121t121 228.5t55.5 189t20 104z" />
    <glyph glyph-name="e" unicode="e" horiz-adv-x="664" 
d="M518 168q35 0 35 -37q0 -43 -105 -97t-175 -54t-105 23t-57 64q-43 80 -43 193q0 200 60 377t160 293.5t216 116.5q62 0 97.5 -51.5t35.5 -121.5q0 -131 -68.5 -222t-168.5 -149t-230 -110l-4 -147q0 -172 104 -172q56 0 117.5 32.5t88.5 47t42 14.5zM543 870
q0 80 -67 80q-60 0 -141 -108t-134 -285q-13 -43 -15 -65q40 22 82 42t82 42q92 51 142.5 119.5t50.5 174.5z" />
    <glyph glyph-name="f" unicode="f" horiz-adv-x="700" 
d="M206 936l-136 -6q-41 3 -41 37q0 53 116 56q37 1 82 1h54q56 231 90 326q69 194 167.5 296.5t268.5 102.5t170 -61q0 -33 -41 -60q-140 10 -164 10q-149 0 -250.5 -176.5t-140.5 -437.5q66 -2 87 -2l45 1l81 1h22q10 0 25 -2q57 0 57 -39q0 -50 -98 -54q-27 -1 -58 -1
h-74q-42 0 -108 2q-39 -215 -63.5 -380.5t-36 -234t-24 -167t-39.5 -268.5q-71 -438 -285 -614q-133 -108 -352 -108q-155 0 -284 74q-51 30 -79 59t-28 46t18 31t41 14l12 -3q114 -82 173 -102t155 -20t171.5 32t132 87t97.5 129.5t69.5 159t48 175t34 178.5t26 169
t25.5 147q22 149 42 301t46 299q-32 2 -54 2z" />
    <glyph glyph-name="g" unicode="g" horiz-adv-x="778" 
d="M715 1016q33 0 33 -33.5t-12 -65.5t-25.5 -82.5t-38.5 -154.5t-49 -210.5t-46.5 -212.5t-44.5 -204q38 26 75.5 60t63 54.5t43.5 20.5q38 0 38 -34q0 -27 -17 -41q-127 -97 -215 -160l-59 -301q-60 -305 -153 -410q-74 -82 -171.5 -82t-164 66.5t-66.5 177.5
q0 160 165 304q67 58 180.5 141t178.5 137q9 45 21.5 98.5t22.5 97.5t20 87t18.5 82t15.5 67q-55 -177 -114 -268q-109 -166 -184.5 -166t-122 57t-46.5 152q0 175 66 370.5t182 337t254 141.5q70 0 125 -32q12 6 27 6zM154 227.5q0 -145.5 76 -145.5q67 0 154.5 129
t140 308.5t79.5 279t37 135.5q-32 27 -79 27q-91 0 -186 -119t-158.5 -294t-63.5 -320.5zM414 -125q-75 -62 -148.5 -117.5t-131.5 -110.5q-128 -123 -128 -232.5t48 -138.5q21 -13 64 -13q88 0 148.5 95.5t116.5 354.5z" />
    <glyph glyph-name="h" unicode="h" horiz-adv-x="958" 
d="M193 31q0 -47 -76 -47q-35 0 -35 34t200 952q149 703 189 949l8 27q9 30 36 30q51 0 65 -51q-8 -38 -21.5 -106t-31.5 -155t-39 -188t-43 -205t-67 -318t-77 -359q209 430 395 430q76 0 113 -59.5t37 -131.5t-26 -201l-34 -172q-56 -283 -56 -338l3 -78q0 -26 -17.5 -42
t-46.5 -16t-42.5 20.5t-13.5 39.5t3 34l119 665q6 32 6 74q0 103 -57 103q-108 0 -294 -323q-105 -183 -129 -253.5t-47 -162t-23 -117.5z" />
    <glyph glyph-name="i" unicode="i" horiz-adv-x="438" 
d="M383 1376q59 0 59 -59q0 -86 -60 -97q-17 -3 -37 -3t-40 20t-20 51.5t31 59.5t67 28zM242 909v20q0 14 -15 68q0 25 17 45.5t41.5 20.5t40.5 -31t16 -68t-94 -442t-94 -426.5t20 -21.5q13 0 37 25.5t41 25.5q33 0 33 -41.5t-62 -72.5t-90 -31q-70 0 -70 112
q0 23 9.5 51.5t20 79t30 137.5t40 180t50 225.5t29.5 143.5z" />
    <glyph glyph-name="j" unicode="j" horiz-adv-x="412" 
d="M412.5 1338q19.5 -26 19.5 -59t-26.5 -51t-55.5 -18t-50 27t-21 55.5t20 50t57 21.5t56.5 -26zM-633 -719q66 -26 175 -26q399 0 499 524q148 782 207 1214q5 23 22.5 35t34.5 12q35 0 35 -36l-44 -308q-111 -794 -210 -1098q-83 -254 -247 -361q-130 -85 -316 -85
q-111 0 -184 40q-23 12 -23 30t15.5 36t35.5 23z" />
    <glyph glyph-name="k" unicode="k" horiz-adv-x="893" 
d="M807 201q53 0 53 -67q0 -40 -34 -79q-67 -75 -137 -75q-118 0 -208.5 75t-147.5 180t-70 178l-5 -3q-7 -52 -44 -202.5t-43 -180.5q-10 -52 -48 -52q-31 0 -44 11t-13 18v8q0 58 92.5 447t115.5 491q115 493 156 736.5t51.5 265.5t24.5 22q66 0 66 -68q0 -24 -23.5 -137
t-44 -212.5t-67.5 -315t-62 -285.5q84 88 166 88t112.5 -56.5t30.5 -120.5q0 -121 -85 -212t-257 -195q28 -154 129 -269t209 -115q50 0 74 47q11 20 21 49t32 29zM518 950q-78 0 -134.5 -69.5t-82.5 -211.5q-5 -29 -19 -93l-14 -72q10 8 37 24.5t90 59.5t124 113t61 159.5
t-62 89.5z" />
    <glyph glyph-name="l" unicode="l" horiz-adv-x="535" 
d="M391 125q45 0 45 -45.5t-59.5 -70.5t-136 -25t-112.5 41t-36 100t6.5 108.5t22.5 137.5t37 198t47 236t53 257t54.5 260t52.5 245.5t46 214t35 164.5q9 32 46 32q43 0 43 -47v-26q-39 -187 -77 -364t-129.5 -614t-118 -591t-26.5 -185t19 -55t44.5 -24t46.5 8.5t41 18
t36 18t20 8.5z" />
    <glyph glyph-name="m" unicode="m" horiz-adv-x="1409" 
d="M82 0q16 48 28.5 117.5t32.5 128.5q85 339 140 719q3 18 4.5 34t29.5 48q21 8 31 8q28 0 37 -35v-16q-4 -146 -45 -318l-51 -215q22 46 48 106q110 254 205 359.5t206 105.5q61 0 100 -49.5t39 -115.5q0 -10 -1 -17.5t-1 -15.5q111 135 231 184q37 16 74.5 16t71.5 -35.5
t34 -95.5t-13 -129t-32.5 -139t-44 -141.5t-63.5 -198.5t-46 -194.5t-11.5 -80.5t-18 -30.5t-37.5 -17.5q-47 0 -47 100q0 63 23 136t37.5 123t39.5 120t62 184t49 244q0 42 -10.5 49.5t-37.5 7.5t-81.5 -35t-110.5 -99q-125 -147 -188 -361q-18 -64 -34 -110t-42.5 -126
t-42 -140.5t-27 -76.5t-37.5 -16q-47 0 -51 51q24 168 72 297t78 205t58 171.5t28 164.5t-43 69q-118 0 -310 -388q-103 -207 -125 -273t-34 -101q-66 -207 -125 -207q-20 0 -34.5 8.5t-14.5 20.5z" />
    <glyph glyph-name="n" unicode="n" horiz-adv-x="913" 
d="M698 810q0 99 -54 99q-72 0 -275 -413q-92 -187 -128.5 -282.5t-54.5 -134.5t-35.5 -59t-39 -20t-25.5 10.5t-4 38t80.5 472t93 467.5t22.5 29.5t36 6.5t40.5 -20t14.5 -35.5t-4 -30.5q-7 -27 -21 -67q-48 -137 -92 -388l-21 -121q23 48 52 115.5t86 193.5t127 225
q90 130 168 130q137 0 137 -221q0 -83 -23.5 -207t-52 -271t-31.5 -243l-12 -55q0 -22 -6.5 -31.5t-39 -9.5t-47 12t-9.5 43l100 598q18 111 18 169z" />
    <glyph glyph-name="o" unicode="o" horiz-adv-x="780" 
d="M530 1034q189 0 189 -286q0 -223 -123 -479q-83 -172 -200 -248q-60 -39 -124 -39q-113 0 -162 90t-49 194q0 186 62.5 361t170 291t236.5 116zM262 703q-108 -216 -108 -422q0 -143 79 -192q24 -15 55 -15q64 0 143 111t133 273.5t54 279t-13.5 147.5t-31 43t-58 12
t-88.5 -32q-93 -60 -165 -205z" />
    <glyph glyph-name="p" unicode="p" horiz-adv-x="856" 
d="M326 758q146 280 316 280q89 0 128 -52.5t39 -155.5q0 -189 -54 -385.5t-161.5 -334t-253.5 -137.5q-56 0 -90 24t-55 81q-51 -232 -96.5 -461.5t-94.5 -415.5q-20 -41 -57 -41q-31 0 -35 41q66 259 106 468t61.5 321t61 321.5t127.5 655.5v45q0 20 18.5 38.5t43 18.5
t36 -19t11.5 -36.5t-3 -31.5t-7 -27.5t-8 -26.5t-5 -23zM238 227q0 -157 116 -157q108 0 198 134q115 172 152 458q11 79 11 152q0 132 -65 132t-151 -95q-120 -133 -190.5 -315t-70.5 -309z" />
    <glyph glyph-name="q" unicode="q" horiz-adv-x="764" 
d="M682 752q-3 -20 -20 -50q-5 -119 -159 -846q-25 -118 -52.5 -248t-88.5 -411q-10 -41 -51 -41q-15 0 -28 9.5t-13 22t11.5 69t26.5 135t27.5 143t23.5 119t21.5 106.5t22 105t24.5 114.5t29 135.5t36 168q-18 -27 -35 -60t-50 -91.5t-82 -103t-119 -44.5t-107.5 58.5
t-37.5 137.5q0 173 39 369t122 330q104 165 257 165q89 0 146 -86t57 -206zM154 225q0 -141 63 -141q73 0 225 316q102 209 108 275q3 24 6.5 68t16.5 70l7 6q-28 131 -101 131q-147 0 -247 -299q-78 -234 -78 -426z" />
    <glyph glyph-name="r" unicode="r" horiz-adv-x="727" 
d="M82 4l46 244q36 187 49 265.5t29.5 173t67.5 271.5q-2 5 -2 9v10q0 48 37 69q11 7 23 7q43 0 43 -62q0 -36 -29 -129.5t-45 -173.5q14 23 34.5 58t65 102t112 127.5t138 60.5t107.5 -38q14 -13 14 -33t-18 -36t-37 -16t-37 10.5t-40 10.5t-70 -36q-191 -139 -315 -551
q-33 -110 -40 -151.5t-12 -67.5q-30 -161 -92 -161q-29 0 -29 37z" />
    <glyph glyph-name="s" unicode="s" horiz-adv-x="633" 
d="M387 956q-100 0 -100 -116q0 -77 36 -159t61 -131q97 -193 97 -295.5t-62 -174.5t-179 -86h-13q-113 0 -164 139q-2 5 -2 9v10q0 21 13 34.5t28 16.5h11q20 0 32.5 -16t23.5 -35.5t24 -35.5t45 -16q68 0 108.5 42.5t40.5 94.5t-15 97q-25 77 -86 192q-102 189 -102 294
t53 172t150 67q60 0 103 -25q81 -47 81 -105.5t-49 -58.5q-18 0 -29.5 13.5t-24.5 29.5q-35 43 -81 43z" />
    <glyph glyph-name="t" unicode="t" horiz-adv-x="647" 
d="M272 942q-85 0 -147 -10q-41 4 -41 35q0 18 15 37t40 22l148 -4q4 21 8.5 50.5t16 86t32 102.5t53.5 46t33 -37v-13q-29 -124 -49 -233h147q78 0 95.5 -12t17.5 -30q0 -35 -43 -46q-22 -6 -88.5 -6t-144.5 6q-19 -100 -84.5 -374t-65.5 -353.5t18 -104.5q13 -16 44 -16
t53 18t40 39.5t35.5 39.5t38.5 18q41 0 41 -41q0 -21 -41.5 -69.5t-76.5 -74.5t-102 -26t-92 23q-52 46 -52 147q0 52 12 123l19 116q19 86 34 150.5t26 113.5t29 127.5t31 149.5z" />
    <glyph glyph-name="u" unicode="u" horiz-adv-x="870" 
d="M598 -49q-61 0 -61 164q0 106 20.5 217t42.5 217q-37 -66 -70 -135.5t-58 -112t-40 -71.5q-129 -246 -239.5 -246t-110.5 219q0 281 89 637l31 124q19 68 64 68q26 0 35 -35q-3 -32 -16 -59t-19 -60q-88 -444 -88 -606l-2 -96q0 -82 27 -82q78 0 265 368q29 56 71 141
t66 129.5t43 85.5q79 173 136 173q35 0 35 -38.5t-39 -126.5t-64 -180q-72 -257 -89 -537v-11q0 -30 12.5 -44.5t18.5 -21t6 -27t-23.5 -37.5t-42.5 -17z" />
    <glyph glyph-name="v" unicode="v" horiz-adv-x="700" 
d="M426 1378q285 -22 285 -349.5t-225 -735.5q-74 -133 -169 -258q-31 -41 -55 -41q-51 0 -57 43q-36 254 -58 463.5t-63 511.5q6 20 23.5 34.5t32.5 14.5q29 0 38 -35q22 -201 50 -419t57 -464q149 235 208 370q121 281 121 497.5t-126 264.5q-36 14 -66 18t-41.5 10
t-11.5 24q0 44 57 51z" />
    <glyph glyph-name="w" unicode="w" horiz-adv-x="1178" 
d="M268 -6q-43 0 -43 84q-34 143 -73.5 450t-53.5 369.5t-14 77t16.5 33t34.5 18.5t33.5 -15t23 -50.5t25.5 -155t49.5 -351.5t40.5 -249q34 96 75 201q166 432 196 589q7 39 47 39q23 0 32.5 -12t12.5 -35q47 -477 110 -813q305 490 305 782q0 146 -94 246
q-14 15 -37.5 28.5t-46.5 27.5q-57 33 -57 59q0 20 17 36.5t41 16.5t98 -47t122 -137t48 -214q0 -210 -83.5 -413t-211.5 -395q-16 -24 -32 -55q-63 -123 -116 -123q-47 0 -47 82q0 15 2.5 30t-4.5 56q-70 375 -92 565q-30 -68 -121 -315.5t-156 -383.5q-19 -26 -47 -26z
" />
    <glyph glyph-name="x" unicode="x" horiz-adv-x="700" 
d="M-57 18q0 20 19 49t122 194.5t188 291.5q-6 14 -11.5 30.5t-24.5 71.5t-45 128.5t-34.5 99.5t-16.5 51.5t-14.5 44.5t-6.5 31.5t15 28.5t39.5 16t39 -19.5t23.5 -46.5t14.5 -55.5t13.5 -53.5t18 -53t20 -55.5t21 -56t23 -60.5q41 50 124.5 169.5t107 149.5t57.5 50
q15 6 29 6q32 -6 32 -32.5t-10 -45.5q-15 -30 -53.5 -76t-113.5 -156t-128 -173q111 -272 131 -331.5t42 -101t22 -79.5q-3 -22 -21.5 -36.5t-42.5 -14.5t-33 32q-3 34 -20.5 64.5t-35.5 83t-50 127t-64 155.5l-280 -430q-19 -30 -57.5 -30t-38.5 32z" />
    <glyph glyph-name="y" unicode="y" horiz-adv-x="860" 
d="M710 1009.5q17 24.5 50 24.5t33 -24t-89.5 -418.5t-121.5 -540.5q40 35 71 66t55 52t42 21q38 0 38 -34q0 -21 -16 -41q-112 -100 -213 -176q-86 -473 -164 -623q-21 -41 -55 -78q-81 -92 -185 -92t-161 76.5t-57 149t18 125.5t49 97t73 81.5t90 72.5t99.5 69t102.5 72
l100 76q11 44 76 254t76 250q-86 -251 -211 -391q-84 -94 -160 -94t-125 61t-49 172q0 172 98 542q49 184 49 200q-4 29 4 40q29 39 68 39t39 -40q0 -37 -76 -345t-76 -412.5t25.5 -131.5t62.5 -27q79 0 166 131t149.5 361t85 320.5t39.5 115zM444 -154q-82 -63 -155.5 -113
t-128.5 -100q-119 -108 -119 -241q0 -84 55 -130q23 -18 61.5 -18t71 26t58.5 67t46.5 93t36.5 104t27.5 99.5t20.5 79.5z" />
    <glyph glyph-name="z" unicode="z" horiz-adv-x="817" 
d="M215 1033l86 -7l440 -2q52 0 55 -20q1 -7 1 -18.5t-5.5 -22t-12 -18.5t-13 -13.5t-74 -98t-251.5 -335t-281 -375.5q41 0 117 -27.5t139 -27.5q198 0 198 112q0 22 -18 50t-18 45.5t16 38t39 20.5q38 0 59 -51.5t21 -87.5q0 -101 -71.5 -159.5t-207.5 -58.5
q-70 0 -131 22.5t-90.5 33t-59 10.5t-75.5 -27.5t-64 -27.5q-37 0 -37 37q0 14 13 34q162 211 368 483.5t297 389.5l-245 10l-138 -10h-34q-93 0 -93 50.5t70 50.5z" />
    <glyph glyph-name="braceleft" unicode="{" horiz-adv-x="565" 
d="M137 -608q-104 0 -104 267t119 710q23 92 38 147l8 34q7 29 9.5 44.5t6 29.5t3.5 18v7q0 13 -9 13l-65 -9q-27 0 -31 7.5t-6 13.5t-8 14q9 41 66 70l46 22t44 39t33.5 71t18 88t5.5 89q0 261 16 409q46 427 301 496q10 2 19 2q43 0 43 -35.5t-48 -54.5q-13 -6 -26 -6h-8
q-70 -14 -108 -78v-2q-57 -99 -68 -308q-5 -91 -8.5 -257t-23 -254.5t-43.5 -140.5t-70 -93q30 -18 30 -81t-61 -270q-129 -432 -129 -697q0 -116 31 -174q6 -11 17.5 -17t21.5 -14l75 21q43 0 43 -27q0 -36 -61.5 -65t-116.5 -29zM164 674h2h-2zM500 1800v-2v2z" />
    <glyph glyph-name="bar" unicode="|" horiz-adv-x="580" 
d="M45 -305q-23 0 -27 29q0 10 2 14h-2v1l2 1q13 99 57.5 298.5t207 1071.5t250.5 1294q11 20 31.5 35t37.5 15q26 0 29 -35q-80 -380 -247.5 -1276.5t-211 -1086t-55.5 -285.5v-7q0 -37 -47 -62q-13 -7 -27 -7z" />
    <glyph glyph-name="braceright" unicode="}" horiz-adv-x="655" 
d="M408 1858l-89 -5q-34 4 -34 25q0 76 170 76q163 0 163 -234q0 -175 -69 -405q-30 -100 -64 -199.5t-64 -198.5q-69 -228 -69 -397q0 -11 1 -21.5t1 -21.5q28 10 56 10t28 -32t-44 -56.5t-52 -31.5q-58 -68 -102.5 -433t-77.5 -490q-61 -235 -149.5 -351.5t-229.5 -116.5
t-245 68q-60 39 -60 65t23 47t42.5 21t30.5 -8q105 -103 242 -103q147 0 200 200q46 175 82 403t56 325q-2 -10 -9 -27q6 47 12 102q24 218 107 322q-26 23 -26 90.5t14.5 133.5t23 116.5t32.5 130t51.5 158t55.5 157.5t64.5 212t36.5 280t-55 177q-21 12 -53 12z" />
    <glyph glyph-name="asciitilde" unicode="~" horiz-adv-x="1239" 
d="M1157 684q0 -14 -8 -29l-82 -149q-39 -73 -129 -78q-94 0 -258 100q-43 26 -107 66.5t-94 49.5t-67 9q-86 0 -169 -67t-87 -158q-3 -25 -22 -41t-38 -16q-31 0 -35 43q13 125 123.5 234.5t237.5 109.5q52 0 94.5 -20t206.5 -116t203.5 -96t66.5 20t49 76q35 97 80 97
q35 0 35 -35z" />
    <glyph glyph-name="nonbreakingspace" unicode="&#xa0;" horiz-adv-x="850" 
 />
    <glyph glyph-name="exclamdown" unicode="&#xa1;" horiz-adv-x="406" 
d="M-123 -1327q-26 0 -35 35q5 103 24 202.5t32 202.5q72 645 262 1444q8 19 25 30t31 11q32 0 36 -41q-186 -792 -260 -1429q-13 -104 -31.5 -204t-23.5 -202q-7 -20 -24 -34.5t-36 -14.5zM283 975q41 -16 41 -61t-36.5 -75t-70.5 -30t-52 23t-18 56q0 72 68 126
q15 10 33 10q37 0 37 -35v-7q0 -4 -2 -7z" />
    <glyph glyph-name="cent" unicode="&#xa2;" horiz-adv-x="694" 
d="M184 -236q-34 0 -34 33q0 27 28.5 84.5t40.5 98.5q-72 15 -115 88.5t-43 159.5q0 161 57.5 339t153 310t207.5 161q47 108 57 142q17 55 66 61q12 0 21.5 -9t9.5 -28q0 -64 -55 -164q52 -12 75 -68q9 -22 15 -40.5t18 -24.5q8 -13 8 -31.5t-17 -34.5t-38 -16
q-43 0 -55 63.5t-70 63.5q-84 0 -169 -117.5t-139 -284t-54 -277t52 -164.5q19 -19 46 -27q20 20 41.5 20t32.5 -24q65 9 111 70q17 22 31.5 39.5t33.5 17.5q39 0 39 -43t-69 -104t-159 -76q-36 -137 -91 -198q-18 -20 -36 -20z" />
    <glyph glyph-name="sterling" unicode="&#xa3;" horiz-adv-x="1077" 
d="M588 973q133 -45 174 -45q77 0 203 84q13 8 30 8q33 0 33 -37q0 -49 -104.5 -100.5t-176 -51.5t-182.5 37q-11 -52 -20.5 -102.5t-20.5 -95.5t-32.5 -164.5t-47.5 -188.5q57 -31 112.5 -61.5t114 -54.5t115 -52t148 -68t157 -40t119.5 32.5t83 47t61 14.5t32 -31
q0 -59 -108 -109t-181.5 -50t-133 17t-118.5 42.5t-117 56t-110.5 54t-104 56t-105.5 62.5q-49 -84 -121 -145q-142 -119 -220.5 -119t-116.5 51t-38 107q0 107 68 198t164 91t221 -58q21 75 34 150t31 156l49 235q-129 43 -176 43t-68.5 -2.5t-35.5 -24.5q-20 -24 -47 -24
q-37 0 -37 34q0 58 61 90q43 23 86.5 23t86.5 -9.5t91 -18.5l60 -13q50 254 86.5 384t42.5 157.5t17.5 73.5t26 78.5t26 61t25.5 58.5q73 164 173 164q77 0 168 -97.5t104 -170.5q-3 -22 -21 -39.5t-40 -17.5t-33 28q-9 61 -78 124t-108 77h-2q-109 -79 -179 -378
q-26 -111 -39.5 -170.5t-29.5 -123.5zM330 274q-94 45 -164 45t-116 -46t-46 -105.5t42 -95.5q15 -13 38 -13q49 0 125.5 74.5t120.5 140.5z" />
    <glyph glyph-name="currency" unicode="&#xa4;" horiz-adv-x="1010" 
d="M213 692q-53 77 -53 158.5t57 173.5q-53 30 -84 66.5t-37 48t-6 28.5t16.5 35.5t37 18.5t31 -18.5t24 -31t28.5 -23.5t30.5 -22t27.5 -22q87 78 192 78q47 0 77 -17.5t41.5 -25t47.5 -19.5q20 37 102 96.5t118 59.5t36 -37q0 -31 -71 -79q-30 -19 -62 -39t-49 -33.5
t-25 -16.5q43 -53 43 -128q0 -125 -57 -226q-3 -18 -12 -27q14 -43 70 -101t79 -83t23 -43.5t-17 -35.5t-39.5 -17t-91.5 66.5t-104 137.5q-59 -41 -143 -41t-158 50q-49 -90 -82 -121t-45 -31q-37 0 -37 38t37 100t55 83zM565 1026q-25 8 -28 27q-23 14 -41 25.5t-49 11.5
q-67 0 -129 -69t-62 -147t52.5 -139t138 -61t146 74t60.5 162t-88 116z" />
    <glyph glyph-name="yen" unicode="&#xa5;" horiz-adv-x="881" 
d="M135 -78q-37 0 -37 37q0 49 72 66q40 9 77.5 17.5t76.5 16.5q18 66 36 116.5t43.5 131.5t28.5 211q-145 -12 -223 -59q-10 -4 -23 -4t-23.5 10t-10.5 33q0 46 83.5 74t200.5 38l6 64q-18 27 -41 90q-174 -5 -198 -29q-20 -12 -35 -12q-37 0 -37 37q0 84 240 100
q-93 316 -185 895q-14 88 -24 162q0 26 15 45.5t38 19.5t38 -12.5t15 -31t-10 -31.5q50 -370 160 -829q34 -144 63 -216h19q21 54 56 121t134 309.5t184.5 407t190.5 264.5q20 16 38 16q38 0 38 -34q0 -22 -17 -41q-141 -137 -284 -471q-39 -93 -101.5 -249t-97.5 -224.5
t-47 -102.5q192 -10 192 -49q0 -19 -14.5 -36t-34.5 -23q-73 6 -180 10q-7 -10 -18 -146q77 0 152 -4t147 -6q34 -9 34 -35q0 -18 -14.5 -35.5t-34.5 -23.5l-295 12q-17 -126 -55 -252.5t-55 -195.5q52 6 102 6q199 0 199 -55q0 -22 -20.5 -39t-45.5 -17q-63 17 -162.5 17
t-189 -22.5t-114 -32t-52.5 -9.5z" />
    <glyph glyph-name="brokenbar" unicode="&#xa6;" horiz-adv-x="664" 
d="M350 809q-26 0 -26 31q0 8 27 93.5t94 368.5t105 424t68 283q29 49 62.5 49t36.5 -35q-32 -142 -69.5 -282.5t-73.5 -286t-70.5 -293t-81.5 -295.5q-8 -24 -30.5 -40.5t-41.5 -16.5zM18 -764l92 488q61 301 79 422t26 132q27 39 58.5 39t31.5 -34q-24 -207 -68 -422.5
t-70.5 -344t-47.5 -255.5q-10 -25 -31.5 -41.5t-40.5 -16.5q-29 0 -29 33z" />
    <glyph glyph-name="section" unicode="&#xa7;" horiz-adv-x="1071" 
d="M524 1653q-205 224 -205 403q0 97 29 149.5t73 84.5q80 57 175 57q172 0 298 -103t126 -233q0 -100 -8 -135q-17 -80 -72 -80q-23 0 -29 29l9 141q0 122 -98 208.5t-240 86.5t-159 -128q-5 -38 -5 -75q0 -176 195 -376q168 -174 220 -244q91 -123 91 -217
q0 -161 -171 -273q-146 -96 -270 -100q145 -212 187 -289q92 -172 92 -299q0 -227 -117.5 -379t-290.5 -228.5t-321 -76.5t-279 62.5t-168 166.5q0 49 42 73q13 7 29 7t26 -22q30 -90 142.5 -138.5t208.5 -48.5q167 0 307.5 78.5t229 207.5t88.5 279.5t-119 336.5
q-51 79 -110 155.5t-110 152.5q-119 179 -119 300.5t25 193t69 121t102.5 83.5t126.5 69zM772.5 1373.5q-54.5 81.5 -166.5 195.5q-162 -61 -210 -109q-87 -87 -87 -193t37 -187t107 -187q16 39 130.5 90t154.5 77q89 61 89 146.5t-54.5 167z" />
    <glyph glyph-name="dieresis" unicode="&#xa8;" horiz-adv-x="1706" 
d="M782 2174q-49 17 -49 66.5t27 75.5q49 47 77 47q64 0 64 -63q0 -44 -32 -86.5t-70 -42.5q-7 0 -17 3zM475 2347v2q33 -39 33 -70.5t-45 -75.5t-72 -44t-42 33.5t-15 61.5t7.5 48t20 35t28.5 24t39 9t46 -23z" />
    <glyph glyph-name="copyright" unicode="&#xa9;" horiz-adv-x="1090" 
d="M848 1853l-88 13q-129 0 -272 -78q-196 -106 -228 -258q-10 -44 -10 -107.5t27 -130.5t75 -116q101 -103 266.5 -103t314.5 141q90 85 129 197q19 55 19 110t-9 89t-26.5 60.5t-43.5 53t-60 66.5q-4 10 -4 26.5t16 34t38.5 17.5t77.5 -57.5t73 -98.5q28 -76 28 -150
q0 -148 -73.5 -282t-204 -218.5t-293.5 -84.5q-207 0 -324.5 127t-117.5 301.5t97 298t247.5 192t308.5 70.5q20 0 39 -8t39 -14q22 -15 22 -35.5t-19.5 -38t-43.5 -17.5zM725 1268q0 -62 -100 -62t-154.5 73t-54.5 137q0 122 104 224.5t221 102.5q73 0 123 -39
q8 -13 8 -31.5t-17 -34.5t-34 -16t-49 14.5t-59.5 14.5t-65.5 -21t-69 -54q-68 -72 -68 -152t96 -110q35 -10 84 -11q35 -9 35 -35z" />
    <glyph glyph-name="ordfeminine" unicode="&#xaa;" horiz-adv-x="575" 
d="M465 1288q-59 -41 -134.5 -41t-124 49t-48.5 149t99 182.5t214 82.5h2q6 40 6 89q0 104 -102 104q-79 0 -125 -47q-14 -15 -21 -34q-15 -40 -55 -40q-31 0 -35 41q5 17 9.5 37t19.5 36q33 39 102 70t120 31q95 0 138 -47.5t43 -128t-23.5 -204.5t-23.5 -170.5t9.5 -67.5
t23.5 -32.5t30.5 -16.5t30.5 -10q33 -10 33 -39.5t-39 -46.5q-12 -5 -24 -5q-83 0 -125 59zM430 1394v52q0 40 25 168h-15q-84 0 -137 -56.5t-53 -108.5q0 -103 90 -103q66 0 92 26q-2 11 -2 22z" />
    <glyph glyph-name="guillemotleft" unicode="&#xab;" horiz-adv-x="668" 
d="M281 494q-37 0 -37 28q0 14 21 36q152 159 229 290q31 33 57 33t31 -17t-10 -42q-116 -194 -191 -261q72 -45 143.5 -136t71.5 -123t-21.5 -53.5t-42.5 -21.5t-32 15q-98 173 -219 252zM287 319q0 -45 -51 -45q-29 0 -58 38q-102 131 -154.5 155.5t-52.5 42t11 29
t34 28.5q129 115 250 258q12 12 21 23t24 25t39.5 14t24.5 -27q-2 -5 -7 -20q-21 -58 -220 -268q-34 -36 -60 -60q39 -29 90 -81.5t80 -74t29 -37.5z" />
    <glyph glyph-name="logicalnot" unicode="&#xac;" horiz-adv-x="991" 
d="M723 465q3 17 32 98.5t48 124.5h-17q-119 0 -332.5 12t-322.5 13q-35 3 -35 26q0 35 44 59q12 7 26 9q109 -1 325 -13t334 -12l68 2q31 0 31 -28q0 -15 -6 -25t-4.5 -12.5t-3.5 -9.5t-11 -15.5t-12.5 -16.5t-11.5 -20t-8.5 -30t-14.5 -33q-21 -78 -34 -103
q-27 -55 -61 -55t-34 29z" />
    <glyph glyph-name="uni00AD" unicode="&#xad;" horiz-adv-x="870" 
d="M127 547q-37 0 -37 38q0 32 35 49t87 17t130.5 -10t169 -10t205.5 31h12q19 0 28 -9.5t9 -21.5q0 -96 -408 -96q-57 0 -110 8t-72 8l-39 -6q-4 0 -4 2h-6z" />
    <glyph glyph-name="registered" unicode="&#xae;" horiz-adv-x="1085" 
d="M1028 1796q139 -127 139 -314.5t-185.5 -322.5t-405.5 -135q-75 0 -153 31t-137 87q-128 120 -128 296q0 128 73 215q182 209 389 281q81 28 141.5 28t91.5 -9t59.5 -23.5t55.5 -31.5t54 -32q22 -15 22 -36.5t-16 -33.5zM537 1214q-54 0 -54 302q0 137 35 221
q23 32 55 32q18 9 26 9h12q14 0 72 -8q189 -26 189 -136q0 -101 -102 -134q-28 -10 -81 -25t-73 -31q133 -133 291 -133h16t17 2q35 -9 35 -35q0 -11 -4 -21q100 98 100 212t-75 205t-97 147q-79 41 -143 41q-119 0 -232.5 -58t-189.5 -154.5t-76 -205t99 -217.5t268 -109
t305 105q-23 -6 -51 -6q-71 0 -157 45.5t-130 130.5l4 -121q-3 -25 -22 -41.5t-37 -16.5zM590 1679q-17 -60 -17 -133v-33q29 15 64 27.5t86 32.5t51 43q0 41 -47.5 52t-136.5 11z" />
    <glyph glyph-name="macron" unicode="&#xaf;" horiz-adv-x="1706" 
d="M1059 2318q33 -11 33 -35q0 -45 -54 -59q-42 -12 -203.5 -12t-227.5 4.5t-115 28.5q-13 14 -13 32t18.5 34t40 16t46.5 -7.5t51 -7.5l61 2q124 -4 173.5 -4t189.5 8z" />
    <glyph glyph-name="degree" unicode="&#xb0;" horiz-adv-x="483" 
d="M535 2064q157 -39 157 -136q0 -91 -82 -162.5t-183 -71.5t-146 47t-45 107q0 111 58 190.5t138.5 79.5t102.5 -54zM528.5 1982q-69.5 39 -111.5 39t-61.5 -35t-19.5 -85t23.5 -83.5t76.5 -33.5t107.5 34t54.5 79.5t-69.5 84.5z" />
    <glyph glyph-name="plusminus" unicode="&#xb1;" horiz-adv-x="864" 
d="M119 594q12 36 36.5 52t36.5 16t19 -5q86 41 199 50h16q4 31 10 57l13 61q4 19 4 54v45q0 53 39 78q12 8 28 8q39 0 39 -64q0 -34 -9.5 -76t-15.5 -78.5t-16 -80.5h14q36 0 85 -7l73 -10q25 -4 54 -4t63 4q27 -9 27 -27t-18.5 -39.5t-43.5 -27.5l-270 23
q-31 -155 -31 -258v-29q-13 -72 -68 -72q-34 0 -34 84t41 273q-6 0 -28.5 -4.5t-46 -9t-59.5 -11.5l-48 -20q-36 -15 -72.5 -15t-36.5 33zM713 70l-297 12q-213 0 -330 -64q-12 -4 -23 -4q-28 0 -28 27q0 49 83 83q61 25 161 37.5t173.5 12.5t148.5 -4t147 -6
q26 -5 26 -31.5t-39 -51.5q-11 -7 -22 -11z" />
    <glyph glyph-name="twosuperior" unicode="&#xb2;" horiz-adv-x="600" 
d="M63 1069q-43 0 -43 52t66 113q27 25 59.5 41.5t51 16.5t28.5 -4q152 186 254 475q-57 -10 -117 -65q-5 -23 -24 -41.5t-41 -18.5q-35 0 -35 45t94 111q95 66 159.5 66t64.5 -68t-166 -357q-58 -102 -129 -188q20 -25 37 -52.5t53.5 -51t62.5 -23.5t70 6q29 -9 29 -33
t-31.5 -43.5t-67.5 -19.5q-144 0 -237 127q-95 -88 -138 -88z" />
    <glyph glyph-name="threesuperior" unicode="&#xb3;" horiz-adv-x="569" 
d="M432 1880q164 0 164 -94q0 -123 -190 -268q83 -40 83 -175t-54 -231q-87 -154 -230 -245q-103 -66 -190 -66t-163 57q-96 71 -100 195q4 22 25.5 43.5t43 21.5t29.5 -22q4 -189 192 -189q49 0 112 27.5t116 79.5q119 117 119 293q0 121 -65 131q-24 -3 -42 -3
q-53 0 -53 27.5t69 75.5q30 21 64.5 44t64 49t49.5 55.5t20 63.5t-70 34q-39 0 -64.5 -10.5t-33.5 -10.5q-13 -10 -31 -10q-29 0 -29 25q0 45 58.5 73.5t105.5 28.5zM285 1442q6 0 10 4q-3 -2 -5.5 -2t-4.5 -2z" />
    <glyph glyph-name="acute" unicode="&#xb4;" horiz-adv-x="1706" 
d="M806 2107q-46 0 -46 47q0 15 21.5 45t47 75.5t48.5 93t45 94.5t45 92q23 31 51 31q37 0 37 -35q0 -16 -15.5 -45t-37.5 -76.5t-61 -127.5t-89 -144q-3 -20 -18 -35t-28 -15z" />
    <glyph glyph-name="mu" unicode="&#xb5;" horiz-adv-x="932" 
d="M-152 -1133q-26 0 -26 29v12.5t119.5 539t175.5 906.5q-2 -4 -5.5 -29t-5.5 -28q5 34 10 68.5t11 68.5q5 227 68 541q14 22 24 31q33 43 68 43q24 0 28 -35q-31 -165 -88 -563v-57q0 -308 133 -308q48 0 104 86q23 34 39.5 68t61 119t101.5 249q6 50 11.5 102t19 118
t51 140t88.5 74q26 0 26 -30q0 -10 -18.5 -98t-77.5 -267l-6 -49q-22 -143 -46 -288.5t-38 -289.5q-3 -23 -25.5 -40t-44.5 -17t-28 29q9 137 30 274q-91 -179 -155 -221q-83 -53 -148 -53q-93 0 -135 102q-74 -372 -250 -1169q-8 -25 -30.5 -41.5t-41.5 -16.5z" />
    <glyph glyph-name="paragraph" unicode="&#xb6;" horiz-adv-x="1098" 
d="M141 -395q-32 0 -32 34t7.5 74.5t17 81.5t18.5 75.5t20 88.5t33 164t45.5 226.5t46.5 234.5t44 226.5t38.5 202.5t30.5 163q-129 0 -242 88.5t-113 200.5q0 197 155 337q259 234 732 234q115 0 224.5 -9t207.5 -16q29 -8 29 -33.5t-41 -50.5q-11 -7 -23 -10
q-87 3 -243 18q-96 -457 -208 -1096.5t-243 -1180.5q-9 -25 -31 -41t-41 -16q-26 0 -26 30v6q0 4 22.5 94.5t56.5 245.5q94 437 190 986t188 979q-65 6 -155 6t-202 -19q-104 -513 -131 -661l29 6q26 -5 26 -29q0 -42 -71 -69q-60 -360 -260 -1350l-31 -154
q0 -24 -21.5 -45.5t-46.5 -21.5zM422 1266q74 399 125 637q-145 -40 -274.5 -158t-129.5 -250q0 -167 185 -208z" />
    <glyph glyph-name="periodcentered" unicode="&#xb7;" horiz-adv-x="909" 
d="M348.5 634q-22.5 48 -22.5 91t12 62.5t42 41t79.5 21.5t91 -28.5t41.5 -67.5q0 -67 -56 -117.5t-110.5 -50.5t-77 48z" />
    <glyph glyph-name="cedilla" unicode="&#xb8;" horiz-adv-x="1272" 
d="M502 -272q-37 0 -37 32.5t27 63.5q26 49 49 100t55 94q19 17 41 17q37 0 37 -33q0 -16 -12.5 -35t-40.5 -80q84 -4 154.5 -80t70.5 -159t-69 -160.5t-195 -77.5q-54 0 -104 16q-97 33 -97 70q0 20 17 36.5t40 16.5l15 -2q86 -43 146 -43t105.5 37t45.5 83.5t-30 88.5
q-57 82 -116 82q-34 0 -55 -43l-4 2q-24 -26 -43 -26z" />
    <glyph glyph-name="onesuperior" unicode="&#xb9;" horiz-adv-x="580" 
d="M332 1204q209 0 209 -43q0 -21 -24 -43t-57 -22t-78 8t-120 8t-141 -33q-12 -4 -23 -4q-30 0 -30 27q0 69 170 96q65 230 116 455q-78 -78 -159 -94q-33 3 -33 26q0 17 15 36.5t38 29.5q77 16 147 140q18 31 27.5 44.5t8.5 15t1 4.5h4q32 46 66 46q27 0 27 -35
q-84 -398 -166 -662h2z" />
    <glyph glyph-name="ordmasculine" unicode="&#xba;" horiz-adv-x="524" 
d="M608 1830q13 -12 13 -33t-31 -42q0 -387 -140 -563q-85 -107 -217 -107q-53 0 -94 50.5t-41 112.5q0 122 62 263t158 242t192 109q61 0 98 -32zM502 1765q-3 2 -6 2h-4q-119 -48 -209 -192t-90 -301q0 -60 31 -84q12 -10 44.5 -10t70 24t79 83t68 181.5t26.5 251.5z" />
    <glyph glyph-name="guillemotright" unicode="&#xbb;" horiz-adv-x="676" 
d="M-63 178q-37 4 -37 37q3 22 20.5 40.5t36.5 23.5l31 30q11 10 31.5 32t132.5 106.5t114 95.5q-16 23 -56.5 42.5t-61.5 36.5q-78 63 -78 186q0 57 20 84.5t50 27.5t28 -40.5t-2 -69.5t15 -55t38 -46.5t49.5 -37t64.5 -42t38 -51.5t-20 -51.5t-55 -56.5t-84.5 -69
t-87.5 -69.5t-56.5 -53t-55 -58t-75.5 -42.5zM479 734.5q19 -27.5 66 -80t67.5 -62.5t20.5 -28.5t-19 -37.5q-34 -34 -151.5 -95t-159.5 -118q-24 -24 -53 -24t-29 26q0 15 8 31q61 78 192 149q37 20 73 40q-101 84 -146 207q-13 35 -13 60t16.5 50t49.5 25t33.5 -30
t13 -57.5t31.5 -55z" />
    <glyph glyph-name="onequarter" unicode="&#xbc;" horiz-adv-x="1397" 
d="M150 -129q0 14 24.5 68.5t69.5 159.5t94 206l467 985l401 813h2q56 0 56 -32q0 -18 -17 -35q0 -2 1 -2h1q0 -69 -109 -286l-39 -79q-399 -798 -665 -1382l-188 -414q-17 -35 -57.5 -35t-40.5 33zM1090 432q-171 -33 -232 -33t-61 35t38.5 84.5t61.5 77t37 47.5v-2
q18 36 38 79q100 208 162 220q7 2 15 2q33 0 33 -37q0 -22 -17 -41q-36 -24 -81.5 -128t-137.5 -226q-4 -4 -4 -6q26 4 48.5 7t43.5 6t41.5 5.5t44.5 7.5q29 92 62 156q0 -3 -2 -9q8 26 19 65q48 169 114 169q33 0 33 -37q0 -27 -20.5 -70.5t-31 -135t-28.5 -164.5
q-17 -34 -66 -47q-67 -193 -129 -305v4q-37 -82 -40.5 -116t-22.5 -50.5t-37 -16.5q-31 0 -35 43q8 78 60 185.5t94 230.5zM446 1358q209 0 209 -43q0 -22 -24 -44t-57 -22t-78 8.5t-117.5 8.5t-142.5 -33q-14 -4 -23 -4q-31 0 -31 24q0 42 54 67q40 20 116 32
q67 233 117 454q-78 -78 -160 -94q-33 4 -33 27q0 17 15.5 36.5t38.5 28.5q79 19 148 140q17 31 26.5 45t8.5 15.5t1 4.5h4q32 45 66 45q26 0 26 -35q-84 -395 -166 -661h2z" />
    <glyph glyph-name="onehalf" unicode="&#xbd;" horiz-adv-x="1397" 
d="M150 -129q0 14 24.5 68.5t79 178.5t84.5 187l264 578q48 103 100.5 203.5t102.5 203.5l401 813h2q56 0 56 -32q0 -18 -17 -35q0 -2 1 -2h1q0 -69 -109 -286l-39 -79q-399 -798 -665 -1382l-188 -414q-17 -35 -57.5 -35t-40.5 33zM782 59q-43 0 -43 52.5t65 112.5
q28 26 60.5 42.5t51 16.5t28.5 -4q152 186 254 475q-56 -10 -117 -66q-5 -23 -24.5 -41t-40.5 -18q-35 0 -35 44.5t93 110.5q96 66 165 66q59 0 59 -64q0 -49 -34 -116q-151 -300 -260 -432q10 -12 19 -26t18 -27q31 -44 85 -67q16 -7 36.5 -7t64.5 6q28 -9 28 -33.5
t-30.5 -44t-67.5 -19.5q-143 0 -237 127q-95 -88 -138 -88zM446 1358q209 0 209 -43q0 -22 -24 -44t-57 -22t-78 8.5t-117.5 8.5t-142.5 -33q-14 -4 -23 -4q-31 0 -31 24q0 42 54 67q40 20 116 32q67 233 117 454q-78 -78 -160 -94q-33 4 -33 27q0 17 15.5 36.5t38.5 28.5
q79 19 148 140q17 31 26.5 45t8.5 15.5t1 4.5h4q32 45 66 45q26 0 26 -35q-84 -395 -166 -661h2z" />
    <glyph glyph-name="threequarters" unicode="&#xbe;" horiz-adv-x="1397" 
d="M150 -129q0 14 24.5 68.5t69.5 159.5t94 206l467 985l401 813h2q56 0 56 -32q0 -18 -17 -35q0 -2 1 -2h1q0 -69 -109 -286l-39 -79q-399 -798 -665 -1382l-188 -414q-17 -35 -57.5 -35t-40.5 33zM731 1912q0 -130 -190 -274q84 -40 84 -184q0 -215 -195 -396
q-146 -136 -280 -136q-87 0 -172.5 64t-90.5 188q10 42 47 60q12 5 27.5 5t24.5 -22q2 -92 51 -140.5t119 -48.5q141 0 254.5 112t113.5 287q0 122 -65 132q-29 -4 -44 -4t-23 1q-27 2 -27 29t49.5 61t83.5 57t64 49t49.5 55.5t19.5 63.5t-70 34q-39 0 -64.5 -10.5
t-33.5 -10.5q-13 -10 -31 -10q-29 0 -29 25q0 45 58.5 73.5t123 28.5t105.5 -24t41 -65zM1090 432q-171 -33 -232 -33t-61 35t38.5 84.5t61.5 77t37 47.5v-2q18 36 38 79q100 208 162 220q7 2 15 2q33 0 33 -37q0 -22 -17 -41q-36 -24 -81.5 -128t-137.5 -226q-4 -4 -4 -6
q26 4 48.5 7t43.5 6t41.5 5.5t44.5 7.5q29 92 62 156q0 -3 -2 -9q8 26 19 65q48 169 114 169q33 0 33 -37q0 -27 -20.5 -70.5t-31 -135t-28.5 -164.5q-17 -34 -66 -47q-67 -193 -129 -305v4q-37 -82 -40.5 -116t-22.5 -50.5t-37 -16.5q-31 0 -35 43q8 78 60 185.5t94 230.5z
M420 1563q6 0 10 4q-3 -2 -5.5 -2t-4.5 -2z" />
    <glyph glyph-name="questiondown" unicode="&#xbf;" horiz-adv-x="481" 
d="M461.011 -497.91q0 24.998 27.999 24.998q90.9941 0 90.9941 -176.988q0 -176.989 -168.99 -279.983q-141.991 -85.9951 -314.98 -85.9951q-236.985 0 -318.98 217.987q-28.998 78.9951 -28.998 173.989t11.999 152.99q11.999 57.9971 33.498 107.494t50.4971 92.4941
t62.4961 86.9941q33.498 43.998 70.4961 90.9951q94.9941 124.992 152.49 248.984t101.494 449.973q2.99902 24.999 21.998 41.4971q18.999 16.499 35.998 16.499q32.998 0 36.998 -42.9971q-50.9971 -288.982 -77.9951 -382.477q-26.999 -93.4941 -70.4961 -170.489
t-166.49 -249.985q-166.989 -238.985 -166.989 -418.975q0 -179.988 84.9941 -259.983q63.9961 -57.9971 155.991 -57.9971q175.989 0 292.481 75.9961q116.493 75.9951 116.493 201.987q0 21.999 -16.499 75.9951q-16.499 53.9971 -16.499 66.9961zM287.021 803.011
q-71.9951 0 -71.9951 59.9961q0 27.998 13.999 74.9951q30.998 58.9971 77.9951 73.9961q62.9961 0 85.9951 -45.9971q7.99902 -15.999 7.99902 -55.9971q0 -39.9971 -39.498 -73.4951q-39.4971 -33.498 -74.4951 -33.498z" />
    <glyph glyph-name="Agrave" unicode="&#xc0;" 
d="M211 653q79 -10 266 -18q173 261 443 769q169 318 219 548q8 21 26 35t35 14q26 0 29 -31q16 -16 14.5 -36t-12.5 -31q-23 -81 -32.5 -169.5t-39 -327.5t-29.5 -402t25 -396q123 -13 133 -27t10 -31t-18.5 -34.5t-40 -16t-37.5 4t-33 4.5v-10q0 -6 3.5 -31t4 -69t4 -78.5
t11.5 -71.5t23.5 -106.5t15.5 -91.5t-16.5 -39t-37 -17t-35.5 29.5t-25 75.5t-16.5 103t-11.5 112.5t-8.5 103t-7.5 74.5l-6 28q-136 14 -275 16t-278 5q-264 -400 -498 -506q-78 -39 -122 -39q-54 0 -54 51q0 26 18 45t37.5 19t30.5 -17l2 2q214 83 404 336q29 40 47 63
t35 48q-155 8 -232 16q-28 11 -28 33t17.5 40t39.5 21zM1057 618q-17 134 -17 363.5t43 556.5q-121 -251 -268.5 -508.5t-236.5 -396.5q120 -2 240.5 -3.5t238.5 -11.5zM973 2494q0 26 17.5 45t34.5 19q36 0 42 -35q22 -122 182 -328q8 -10 8 -29.5t-16.5 -37t-35 -17.5
t-34.5 15q-166 216 -198 368z" />
    <glyph glyph-name="Aacute" unicode="&#xc1;" 
d="M211 653q79 -10 266 -18q173 261 443 769q169 318 219 548q8 21 26 35t35 14q26 0 29 -31q16 -16 14.5 -36t-12.5 -31q-23 -81 -32.5 -169.5t-39 -327.5t-29.5 -402t25 -396q123 -13 133 -27t10 -31t-18.5 -34.5t-40 -16t-37.5 4t-33 4.5v-10q0 -6 3.5 -31t4 -69t4 -78.5
t11.5 -71.5t23.5 -106.5t15.5 -91.5t-16.5 -39t-37 -17t-35.5 29.5t-25 75.5t-16.5 103t-11.5 112.5t-8.5 103t-7.5 74.5l-6 28q-136 14 -275 16t-278 5q-264 -400 -498 -506q-78 -39 -122 -39q-54 0 -54 51q0 26 18 45t37.5 19t30.5 -17l2 2q214 83 404 336q29 40 47 63
t35 48q-155 8 -232 16q-28 11 -28 33t17.5 40t39.5 21zM1057 618q-17 134 -17 363.5t43 556.5q-121 -251 -268.5 -508.5t-236.5 -396.5q120 -2 240.5 -3.5t238.5 -11.5zM1218 2109q-46 0 -46 47q0 15 21.5 45t47 75.5t48.5 93t45 94.5t45 92q23 31 51 31q37 0 37 -35
q0 -16 -15.5 -45t-37.5 -76.5t-61 -127.5t-89 -144q-3 -20 -18 -35t-28 -15z" />
    <glyph glyph-name="Acircumflex" unicode="&#xc2;" 
d="M211 653q79 -10 266 -18q173 261 443 769q169 318 219 548q8 21 26 35t35 14q26 0 29 -31q16 -16 14.5 -36t-12.5 -31q-23 -81 -32.5 -169.5t-39 -327.5t-29.5 -402t25 -396q123 -13 133 -27t10 -31t-18.5 -34.5t-40 -16t-37.5 4t-33 4.5v-10q0 -6 3.5 -31t4 -69t4 -78.5
t11.5 -71.5t23.5 -106.5t15.5 -91.5t-16.5 -39t-37 -17t-35.5 29.5t-25 75.5t-16.5 103t-11.5 112.5t-8.5 103t-7.5 74.5l-6 28q-136 14 -275 16t-278 5q-264 -400 -498 -506q-78 -39 -122 -39q-54 0 -54 51q0 26 18 45t37.5 19t30.5 -17l2 2q214 83 404 336q29 40 47 63
t35 48q-155 8 -232 16q-28 11 -28 33t17.5 40t39.5 21zM1057 618q-17 134 -17 363.5t43 556.5q-121 -251 -268.5 -508.5t-236.5 -396.5q120 -2 240.5 -3.5t238.5 -11.5zM1292 2435l-2 -25q0 -47 48 -133.5t106 -126.5q8 -13 8 -31.5t-17 -34.5t-40 -16q-43 0 -100 77
t-87 163q-8 -12 -14 -24q-29 -58 -158 -201q-18 -12 -35 -12q-36 0 -36 32.5t72.5 115t95.5 123.5t41 68q44 64 81 64t37 -39z" />
    <glyph glyph-name="Atilde" unicode="&#xc3;" 
d="M211 653q79 -10 266 -18q173 261 443 769q169 318 219 548q8 21 26 35t35 14q26 0 29 -31q16 -16 14.5 -36t-12.5 -31q-23 -81 -32.5 -169.5t-39 -327.5t-29.5 -402t25 -396q123 -13 133 -27t10 -31t-18.5 -34.5t-40 -16t-37.5 4t-33 4.5v-10q0 -6 3.5 -31t4 -69t4 -78.5
t11.5 -71.5t23.5 -106.5t15.5 -91.5t-16.5 -39t-37 -17t-35.5 29.5t-25 75.5t-16.5 103t-11.5 112.5t-8.5 103t-7.5 74.5l-6 28q-136 14 -275 16t-278 5q-264 -400 -498 -506q-78 -39 -122 -39q-54 0 -54 51q0 26 18 45t37.5 19t30.5 -17l2 2q214 83 404 336q29 40 47 63
t35 48q-155 8 -232 16q-28 11 -28 33t17.5 40t39.5 21zM1057 618q-17 134 -17 363.5t43 556.5q-121 -251 -268.5 -508.5t-236.5 -396.5q120 -2 240.5 -3.5t238.5 -11.5zM1458 2392q41 0 41 -97t-85 -132q-32 -13 -75.5 -13t-76 18.5t-62 40t-56.5 40t-50 18.5q-49 0 -84 -74
q-20 -24 -47 -24q-37 0 -37 35q0 10 4 22q70 139 155 139q46 0 111 -38.5t101.5 -56t75 -17.5t38.5 8v12l-10 56q0 26 18 44.5t39 18.5z" />
    <glyph glyph-name="Adieresis" unicode="&#xc4;" 
d="M211 653q79 -10 266 -18q173 261 443 769q169 318 219 548q8 21 26 35t35 14q26 0 29 -31q16 -16 14.5 -36t-12.5 -31q-23 -81 -32.5 -169.5t-39 -327.5t-29.5 -402t25 -396q123 -13 133 -27t10 -31t-18.5 -34.5t-40 -16t-37.5 4t-33 4.5v-10q0 -6 3.5 -31t4 -69t4 -78.5
t11.5 -71.5t23.5 -106.5t15.5 -91.5t-16.5 -39t-37 -17t-35.5 29.5t-25 75.5t-16.5 103t-11.5 112.5t-8.5 103t-7.5 74.5l-6 28q-136 14 -275 16t-278 5q-264 -400 -498 -506q-78 -39 -122 -39q-54 0 -54 51q0 26 18 45t37.5 19t30.5 -17l2 2q214 83 404 336q29 40 47 63
t35 48q-155 8 -232 16q-28 11 -28 33t17.5 40t39.5 21zM1057 618q-17 134 -17 363.5t43 556.5q-121 -251 -268.5 -508.5t-236.5 -396.5q120 -2 240.5 -3.5t238.5 -11.5zM1380 2174q-49 17 -49 66.5t27 75.5q49 47 77 47q64 0 64 -63q0 -44 -32 -86.5t-70 -42.5q-7 0 -17 3z
M1073 2347v2q33 -39 33 -70.5t-45 -75.5t-72 -44t-42 33.5t-15 61.5t7.5 48t20 35t28.5 24t39 9t46 -23z" />
    <glyph glyph-name="Aring" unicode="&#xc5;" 
d="M211 653q79 -10 266 -18q173 261 443 769q169 318 219 548q8 21 26 35t35 14q26 0 29 -31q16 -16 14.5 -36t-12.5 -31q-23 -81 -32.5 -169.5t-39 -327.5t-29.5 -402t25 -396q123 -13 133 -27t10 -31t-18.5 -34.5t-40 -16t-37.5 4t-33 4.5v-10q0 -6 3.5 -31t4 -69t4 -78.5
t11.5 -71.5t23.5 -106.5t15.5 -91.5t-16.5 -39t-37 -17t-35.5 29.5t-25 75.5t-16.5 103t-11.5 112.5t-8.5 103t-7.5 74.5l-6 28q-136 14 -275 16t-278 5q-264 -400 -498 -506q-78 -39 -122 -39q-54 0 -54 51q0 26 18 45t37.5 19t30.5 -17l2 2q214 83 404 336q29 40 47 63
t35 48q-155 8 -232 16q-28 11 -28 33t17.5 40t39.5 21zM1057 618q-17 134 -17 363.5t43 556.5q-121 -251 -268.5 -508.5t-236.5 -396.5q120 -2 240.5 -3.5t238.5 -11.5zM1211 2408q8 7 23 7t26 -9q110 -78 110 -180q0 -65 -46.5 -111.5t-118.5 -46.5q-114 0 -170 77
q-21 29 -21 68t11.5 74t32.5 64t50 47.5t56 18.5t47 -9zM1215 2157q59 0 59 61q0 33 -47 80h-12q-17 0 -32 10t-32 10t-29 -20.5t-12 -56.5t36.5 -60t68.5 -24z" />
    <glyph glyph-name="AE" unicode="&#xc6;" horiz-adv-x="1878" 
d="M1898 1982q101 0 101 -34q0 -21 -14.5 -38.5t-34.5 -23.5h-138q-430 0 -589 -53q-8 -23 -15.5 -44t-27 -111.5t-60.5 -265.5t-82 -351q59 -8 145 -8h126q243 0 307 4q35 -10 35 -33q0 -42 -40.5 -55t-129.5 -13l-172 2h-33q-203 0 -258 9q-39 -173 -52 -245t-18 -98
q320 -16 342 -46q8 -11 8 -28t-18.5 -34.5t-44.5 -17.5q-125 24 -301 33q-34 -220 -61.5 -305.5t-51.5 -133.5l791 -16q102 0 141 4q35 -9 35 -42.5t-39 -44.5t-111 -11h-14q-154 0 -444.5 11t-350.5 11l-69 -6q-35 0 -46.5 14.5t-11.5 27.5t7 24t42.5 91.5t87.5 379.5
l-325 6q-264 -400 -498 -506q-78 -39 -122 -39q-54 0 -54 51q0 26 18 45t38.5 19t29.5 -17l2 2q214 83 404 336q29 40 47 63t35 48q-155 8 -232 16q-28 11 -28 33t17.5 40t39.5 21q79 -10 266 -18q208 314 495 871q73 141 123 290q-14 11 -14 38t42 53q5 17 8.5 32.5
t9.5 34.5t24 33t35 14q31 0 31 -49l-1 -4q6 -12 7 -17q200 51 605 51h56zM855 628q5 24 9.5 48t9.5 49l60 285v6q0 12 8 31q46 208 86 379q-266 -506 -450 -793z" />
    <glyph glyph-name="Ccedilla" unicode="&#xc7;" horiz-adv-x="1098" 
d="M501 -30l-22 -1q-174 0 -296 170t-122 451q0 220 125 615.5t318 615.5q154 174 314 174t269 -133.5t109 -272.5q-3 -21 -21 -39t-36 -18t-27 12q-13 18 -18 66q-16 127 -91 206.5t-187 79.5t-239 -151q-169 -200 -290 -566.5t-121 -579t72 -355.5q88 -174 254 -174
q122 0 280 114q44 32 71 52t44 20q35 0 35 -37q0 -28 -32 -51t-66 -47.5t-91 -63.5t-123 -63q-2 -13 -13 -29t-39 -78q84 -4 154.5 -80t70.5 -159t-69 -160.5t-195 -77.5q-54 0 -103 16q-98 33 -98 70q0 20 17 36.5t40 16.5l15 -2q86 -43 146 -43t105.5 37t45.5 83.5
t-29 88.5q-58 82 -117 82q-34 0 -55 -43l-4 2q-24 -26 -43 -26q-37 0 -37 32.5t27 63.5q19 36 35.5 73.5t36.5 72.5z" />
    <glyph glyph-name="Egrave" unicode="&#xc8;" horiz-adv-x="1145" 
d="M504 1931q200 51 624 51q60 0 99 -6t39 -30q0 -35 -28 -54q-9 -6 -21 -6h-138q-431 0 -590 -53q-39 -138 -93.5 -406t-78.5 -366q66 -8 280 -8t286 4q35 -10 35 -33q0 -41 -40.5 -54.5t-129.5 -13.5l-451 11q-35 -124 -100 -425.5t-109 -449.5l791 -16q102 0 141 4
q35 -10 35 -34q0 -42 -46 -55q-31 -9 -122.5 -9t-209 3.5t-227 7.5t-202 7.5t-152.5 3.5l-69 -6q-35 0 -46.5 14.5t-11.5 27.5t7 24t18 35.5t25 65.5q26 77 54.5 200t108 503t199.5 922q-33 3 -33 39.5t60 68.5q0 64 61 64q30 0 35 -31zM617 2496q0 26 17.5 45t34.5 19
q36 0 42 -35q22 -122 182 -328q8 -10 8 -29.5t-16.5 -37t-35 -17.5t-34.5 15q-166 216 -198 368z" />
    <glyph glyph-name="Eacute" unicode="&#xc9;" horiz-adv-x="1145" 
d="M504 1931q200 51 624 51q60 0 99 -6t39 -30q0 -35 -28 -54q-9 -6 -21 -6h-138q-431 0 -590 -53q-39 -138 -93.5 -406t-78.5 -366q66 -8 280 -8t286 4q35 -10 35 -33q0 -41 -40.5 -54.5t-129.5 -13.5l-451 11q-35 -124 -100 -425.5t-109 -449.5l791 -16q102 0 141 4
q35 -10 35 -34q0 -42 -46 -55q-31 -9 -122.5 -9t-209 3.5t-227 7.5t-202 7.5t-152.5 3.5l-69 -6q-35 0 -46.5 14.5t-11.5 27.5t7 24t18 35.5t25 65.5q26 77 54.5 200t108 503t199.5 922q-33 3 -33 39.5t60 68.5q0 64 61 64q30 0 35 -31zM861 2113q-46 0 -46 47q0 15 21.5 45
t47 75.5t48.5 93t45 94.5t45 92q23 31 51 31q37 0 37 -35q0 -16 -15.5 -45t-37.5 -76.5t-61 -127.5t-89 -144q-3 -20 -18 -35t-28 -15z" />
    <glyph glyph-name="Ecircumflex" unicode="&#xca;" horiz-adv-x="1145" 
d="M504 1931q200 51 624 51q60 0 99 -6t39 -30q0 -35 -28 -54q-9 -6 -21 -6h-138q-431 0 -590 -53q-39 -138 -93.5 -406t-78.5 -366q66 -8 280 -8t286 4q35 -10 35 -33q0 -41 -40.5 -54.5t-129.5 -13.5l-451 11q-35 -124 -100 -425.5t-109 -449.5l791 -16q102 0 141 4
q35 -10 35 -34q0 -42 -46 -55q-31 -9 -122.5 -9t-209 3.5t-227 7.5t-202 7.5t-152.5 3.5l-69 -6q-35 0 -46.5 14.5t-11.5 27.5t7 24t18 35.5t25 65.5q26 77 54.5 200t108 503t199.5 922q-33 3 -33 39.5t60 68.5q0 64 61 64q30 0 35 -31zM936 2439l-2 -25q0 -47 48 -133.5
t106 -126.5q8 -13 8 -31.5t-17 -34.5t-40 -16q-43 0 -100 77t-87 163q-8 -12 -14 -24q-29 -58 -158 -201q-18 -12 -35 -12q-36 0 -36 32.5t72.5 115t95.5 123.5t41 68q44 64 81 64t37 -39z" />
    <glyph glyph-name="Edieresis" unicode="&#xcb;" horiz-adv-x="1145" 
d="M504 1931q200 51 624 51q60 0 99 -6t39 -30q0 -35 -28 -54q-9 -6 -21 -6h-138q-431 0 -590 -53q-39 -138 -93.5 -406t-78.5 -366q66 -8 280 -8t286 4q35 -10 35 -33q0 -41 -40.5 -54.5t-129.5 -13.5l-451 11q-35 -124 -100 -425.5t-109 -449.5l791 -16q102 0 141 4
q35 -10 35 -34q0 -42 -46 -55q-31 -9 -122.5 -9t-209 3.5t-227 7.5t-202 7.5t-152.5 3.5l-69 -6q-35 0 -46.5 14.5t-11.5 27.5t7 24t18 35.5t25 65.5q26 77 54.5 200t108 503t199.5 922q-33 3 -33 39.5t60 68.5q0 64 61 64q30 0 35 -31zM1024 2178q-49 17 -49 66.5t27 75.5
q49 47 77 47q64 0 64 -63q0 -44 -32 -86.5t-70 -42.5q-7 0 -17 3zM717 2351v2q33 -39 33 -70.5t-45 -75.5t-72 -44t-42 33.5t-15 61.5t7.5 48t20 35t28.5 24t39 9t46 -23z" />
    <glyph glyph-name="Igrave" unicode="&#xcc;" horiz-adv-x="555" 
d="M315 1874q-39 0 -39 38q0 17 19 34.5t45 19.5h175q104 0 230 -2q31 -11 31 -32t-16 -38t-39 -22h-65q-28 0 -78 2q-296 -1190 -404 -1782q189 -5 206 -38q5 -8 5 -21t-17.5 -31.5t-41.5 -21.5q-56 0 -116.5 9t-93.5 13t-80 4t-99 -16h-11q-21 0 -31 10.5t-10 24.5
q0 69 193 69h8q85 456 215 1009t180 771q-15 -1 -25 -1h-54zM361 2496q0 26 17.5 45t34.5 19q36 0 42 -35q22 -122 182 -328q8 -10 8 -29.5t-16.5 -37t-35 -17.5t-34.5 15q-166 216 -198 368z" />
    <glyph glyph-name="Iacute" unicode="&#xcd;" horiz-adv-x="555" 
d="M315 1874q-39 0 -39 38q0 17 19 34.5t45 19.5h175q104 0 230 -2q31 -11 31 -32t-16 -38t-39 -22h-65q-28 0 -78 2q-296 -1190 -404 -1782q189 -5 206 -38q5 -8 5 -21t-17.5 -31.5t-41.5 -21.5q-56 0 -116.5 9t-93.5 13t-80 4t-99 -16h-11q-21 0 -31 10.5t-10 24.5
q0 69 193 69h8q85 456 215 1009t180 771q-15 -1 -25 -1h-54zM607 2113q-46 0 -46 47q0 15 21.5 45t47 75.5t48.5 93t45 94.5t45 92q23 31 51 31q37 0 37 -35q0 -16 -15.5 -45t-37.5 -76.5t-61 -127.5t-89 -144q-3 -20 -18 -35t-28 -15z" />
    <glyph glyph-name="Icircumflex" unicode="&#xce;" horiz-adv-x="555" 
d="M315 1874q-39 0 -39 38q0 17 19 34.5t45 19.5h175q104 0 230 -2q31 -11 31 -32t-16 -38t-39 -22h-65q-28 0 -78 2q-296 -1190 -404 -1782q189 -5 206 -38q5 -8 5 -21t-17.5 -31.5t-41.5 -21.5q-56 0 -116.5 9t-93.5 13t-80 4t-99 -16h-11q-21 0 -31 10.5t-10 24.5
q0 69 193 69h8q85 456 215 1009t180 771q-15 -1 -25 -1h-54zM682 2439l-2 -25q0 -47 48 -133.5t106 -126.5q8 -13 8 -31.5t-17 -34.5t-40 -16q-43 0 -100 77t-87 163q-8 -12 -14 -24q-29 -58 -158 -201q-18 -12 -35 -12q-36 0 -36 32.5t72.5 115t95.5 123.5t41 68
q44 64 81 64t37 -39z" />
    <glyph glyph-name="Idieresis" unicode="&#xcf;" horiz-adv-x="555" 
d="M315 1874q-39 0 -39 38q0 17 19 34.5t45 19.5h175q104 0 230 -2q31 -11 31 -32t-16 -38t-39 -22h-65q-28 0 -78 2q-296 -1190 -404 -1782q189 -5 206 -38q5 -8 5 -21t-17.5 -31.5t-41.5 -21.5q-56 0 -116.5 9t-93.5 13t-80 4t-99 -16h-11q-21 0 -31 10.5t-10 24.5
q0 69 193 69h8q85 456 215 1009t180 771q-15 -1 -25 -1h-54zM770 2178q-49 17 -49 66.5t27 75.5q49 47 77 47q64 0 64 -63q0 -44 -32 -86.5t-70 -42.5q-7 0 -17 3zM463 2351v2q33 -39 33 -70.5t-45 -75.5t-72 -44t-42 33.5t-15 61.5t7.5 48t20 35t28.5 24t39 9t46 -23z" />
    <glyph glyph-name="Eth" unicode="&#xd0;" horiz-adv-x="1370" 
d="M-489 469q5 68 32 68q34 0 45 -25q36 -91 71.5 -167t86.5 -133q109 -122 313 -140q13 82 77.5 378t121.5 532l-70 -7q-114 -14 -162 -14t-66.5 1.5t-35 4.5t-28 7t-9.5 9q-10 13 -10 31t17 34.5t35.5 16.5t27.5 -6q9 1 87.5 1t133.5 6t103 11q108 441 221 758
q-125 -42 -226 -106q-13 -5 -22 -5q-35 0 -35 37q0 30 25 47q149 92 297 134q19 26 39.5 26t27.5 -10q96 22 215.5 22t222.5 -51q291 -145 291 -643q0 -584 -271 -926q-193 -242 -526 -334q-171 -46 -384 -46h-13q-7 -67 -32 -85q-11 -8 -29 -8q-39 0 -39 41q0 20 4 58
q-284 33 -437 270q-57 88 -99 213zM1241 1262q0 620 -467 620q-96 0 -174 -20q-122 -347 -229 -777q266 23 553 23q34 -9 34 -35q0 -18 -14.5 -35.5t-34.5 -23.5q-282 0 -561 -24q-88 -363 -196 -922h6q348 0 592.5 162t367.5 434t123 598z" />
    <glyph glyph-name="Ntilde" unicode="&#xd1;" horiz-adv-x="1329" 
d="M439 1985q23 0 35.5 -14t19.5 -51q34 -167 206.5 -826t251.5 -936q47 266 160 853.5t174 927.5q7 22 29.5 36t41.5 14t20 -12.5t1 -37.5q-127 -613 -226 -1171t-115.5 -649.5t-21.5 -102t-19.5 -25t-39 -14.5t-52.5 47q-27 49 -64 198t-173.5 664.5t-215.5 844.5
q-47 -215 -165.5 -788t-203.5 -923q-9 -40 -52.5 -40t-43.5 37q0 12 69.5 298.5t206.5 957.5t145.5 691.5t31.5 20.5zM1171 2396q41 0 41 -97t-85 -132q-32 -13 -75.5 -13t-76 18.5t-62 40t-56.5 40t-50 18.5q-49 0 -84 -74q-20 -24 -47 -24q-37 0 -37 35q0 10 4 22
q70 139 155 139q46 0 111 -38.5t101.5 -56t75 -17.5t38.5 8v12l-10 56q0 26 18 44.5t39 18.5z" />
    <glyph glyph-name="Ograve" unicode="&#xd2;" horiz-adv-x="1270" 
d="M426 -45q-365 0 -365 649q0 439 169 810q183 405 477 405q114 0 215 -82q18 -20 18 -41q0 -49 -33 -49q-8 0 -47 21q-91 50 -185 50q-123 0 -246 -160.5t-199 -412.5t-76 -498q0 -475 176 -575q42 -23 113 -23t149 35q215 99 361 418q92 201 140 428t48 439.5t-79 374.5
q-57 114 -148 140q-46 12 -87.5 20t-70.5 18t-29 30q0 38 51 45q401 0 450 -525q9 -89 9 -192q0 -220 -59.5 -454.5t-169 -433.5t-259 -318t-323.5 -119zM648 2615q0 26 17.5 45t34.5 19q36 0 42 -35q22 -122 182 -328q8 -10 8 -29.5t-16.5 -37t-35 -17.5t-34.5 15
q-166 216 -198 368z" />
    <glyph glyph-name="Oacute" unicode="&#xd3;" horiz-adv-x="1270" 
d="M426 -45q-365 0 -365 649q0 439 169 810q183 405 477 405q114 0 215 -82q18 -20 18 -41q0 -49 -33 -49q-8 0 -47 21q-91 50 -185 50q-123 0 -246 -160.5t-199 -412.5t-76 -498q0 -475 176 -575q42 -23 113 -23t149 35q215 99 361 418q92 201 140 428t48 439.5t-79 374.5
q-57 114 -148 140q-46 12 -87.5 20t-70.5 18t-29 30q0 38 51 45q401 0 450 -525q9 -89 9 -192q0 -220 -59.5 -454.5t-169 -433.5t-259 -318t-323.5 -119zM892 2232q-46 0 -46 47q0 15 21.5 45t47 75.5t48.5 93t45 94.5t45 92q23 31 51 31q37 0 37 -35q0 -16 -15.5 -45
t-37.5 -76.5t-61 -127.5t-89 -144q-3 -20 -18 -35t-28 -15z" />
    <glyph glyph-name="Ocircumflex" unicode="&#xd4;" horiz-adv-x="1270" 
d="M426 -45q-365 0 -365 649q0 439 169 810q183 405 477 405q114 0 215 -82q18 -20 18 -41q0 -49 -33 -49q-8 0 -47 21q-91 50 -185 50q-123 0 -246 -160.5t-199 -412.5t-76 -498q0 -475 176 -575q42 -23 113 -23t149 35q215 99 361 418q92 201 140 428t48 439.5t-79 374.5
q-57 114 -148 140q-46 12 -87.5 20t-70.5 18t-29 30q0 38 51 45q401 0 450 -525q9 -89 9 -192q0 -220 -59.5 -454.5t-169 -433.5t-259 -318t-323.5 -119zM966 2558l-2 -25q0 -47 48 -133.5t106 -126.5q8 -13 8 -31.5t-17 -34.5t-40 -16q-43 0 -100 77t-87 163
q-8 -12 -14 -24q-29 -58 -158 -201q-18 -12 -35 -12q-36 0 -36 32.5t72.5 115t95.5 123.5t41 68q44 64 81 64t37 -39z" />
    <glyph glyph-name="Otilde" unicode="&#xd5;" horiz-adv-x="1270" 
d="M426 -45q-365 0 -365 649q0 439 169 810q183 405 477 405q114 0 215 -82q18 -20 18 -41q0 -49 -33 -49q-8 0 -47 21q-91 50 -185 50q-123 0 -246 -160.5t-199 -412.5t-76 -498q0 -475 176 -575q42 -23 113 -23t149 35q215 99 361 418q92 201 140 428t48 439.5t-79 374.5
q-57 114 -148 140q-46 12 -87.5 20t-70.5 18t-29 30q0 38 51 45q401 0 450 -525q9 -89 9 -192q0 -220 -59.5 -454.5t-169 -433.5t-259 -318t-323.5 -119zM1132 2515q41 0 41 -97t-85 -132q-32 -13 -75.5 -13t-76 18.5t-62 40t-56.5 40t-50 18.5q-49 0 -84 -74
q-20 -24 -47 -24q-37 0 -37 35q0 10 4 22q70 139 155 139q46 0 111 -38.5t101.5 -56t75 -17.5t38.5 8v12l-10 56q0 26 18 44.5t39 18.5z" />
    <glyph glyph-name="Odieresis" unicode="&#xd6;" horiz-adv-x="1270" 
d="M426 -45q-365 0 -365 649q0 439 169 810q183 405 477 405q114 0 215 -82q18 -20 18 -41q0 -49 -33 -49q-8 0 -47 21q-91 50 -185 50q-123 0 -246 -160.5t-199 -412.5t-76 -498q0 -475 176 -575q42 -23 113 -23t149 35q215 99 361 418q92 201 140 428t48 439.5t-79 374.5
q-57 114 -148 140q-46 12 -87.5 20t-70.5 18t-29 30q0 38 51 45q401 0 450 -525q9 -89 9 -192q0 -220 -59.5 -454.5t-169 -433.5t-259 -318t-323.5 -119zM1054 2297q-49 17 -49 66.5t27 75.5q49 47 77 47q64 0 64 -63q0 -44 -32 -86.5t-70 -42.5q-7 0 -17 3zM747 2470v2
q33 -39 33 -70.5t-45 -75.5t-72 -44t-42 33.5t-15 61.5t7.5 48t20 35t28.5 24t39 9t46 -23z" />
    <glyph glyph-name="multiply" unicode="&#xd7;" horiz-adv-x="745" 
d="M377 748q160 139 293 225q15 6 31.5 6t28 -13.5t11.5 -35t-22 -43.5q-106 -67 -297 -221q70 -125 115 -170t70.5 -61.5t25.5 -34.5t-17.5 -32t-35.5 -14t-25 4q-86 59 -160 180q-21 35 -41 70q-238 -196 -272 -205q-8 -2 -20.5 -2t-22.5 10.5t-10 33t32 47.5
q94 65 248 198q-29 47 -60 93.5t-52 99.5v8q0 26 17.5 45.5t31.5 19.5t29 -22t32.5 -54t36 -68t33.5 -64z" />
    <glyph glyph-name="Oslash" unicode="&#xd8;" horiz-adv-x="1270" 
d="M1043 1912q40 171 110 180h10q30 0 30 -23.5t-30 -40.5q-23 -38 -33.5 -98.5t-15.5 -72.5t-5 -14q128 -178 128 -539.5t-132.5 -707t-348.5 -517.5q-156 -124 -330 -124q-101 0 -174 50l-39 -87q-15 -29 -46.5 -29t-31.5 25q0 6 5 16l57 124q-136 153 -136 571t169 789
q183 405 477 405q114 0 215 -82q18 -20 18 -41q0 -49 -33 -49q-8 0 -47 21q-91 50 -185 50q-123 0 -244 -160.5t-195 -412.5t-74 -498q0 -335 83 -484q23 54 47 108.5t46.5 106.5t43 99.5t38.5 86.5l154 337q151 334 289.5 595t154.5 316q-40 54 -95 69t-96.5 23t-70.5 18
t-29 30q0 38 51 45q161 0 265 -85zM295 99q54 -50 137 -50q160 0 295 132t226.5 337t139.5 429.5t48 430t-77 359.5q-24 -54 -146.5 -296t-181.5 -365.5t-113 -242.5t-109.5 -243.5t-111 -249.5t-107.5 -241z" />
    <glyph glyph-name="Ugrave" unicode="&#xd9;" horiz-adv-x="1309" 
d="M1346 1968q36 0 36 -35q0 -21 -22 -73.5t-37 -106.5t-39.5 -159t-51 -225.5t-54.5 -248.5q-101 -474 -155 -636t-97 -243q-138 -261 -450 -261q-168 0 -272 116t-104 277q0 70 17 119q35 198 65.5 377.5t82 461t141.5 606.5q21 31 44 31q44 0 44 -35q-2 -12 -6.5 -24.5
t-8.5 -24.5l-39 -125q-44 -213 -111.5 -587.5t-105 -558t-37.5 -261.5q0 -118 76 -198t215 -80q218 0 325 132q59 72 86 152l44 129q68 207 173.5 699.5t168.5 701.5q11 37 32 58.5t40 21.5zM684 2496q0 26 17.5 45t34.5 19q36 0 42 -35q22 -122 182 -328q8 -10 8 -29.5
t-16.5 -37t-35 -17.5t-34.5 15q-166 216 -198 368z" />
    <glyph glyph-name="Uacute" unicode="&#xda;" horiz-adv-x="1309" 
d="M1346 1968q36 0 36 -35q0 -21 -22 -73.5t-37 -106.5t-39.5 -159t-51 -225.5t-54.5 -248.5q-101 -474 -155 -636t-97 -243q-138 -261 -450 -261q-168 0 -272 116t-104 277q0 70 17 119q35 198 65.5 377.5t82 461t141.5 606.5q21 31 44 31q44 0 44 -35q-2 -12 -6.5 -24.5
t-8.5 -24.5l-39 -125q-44 -213 -111.5 -587.5t-105 -558t-37.5 -261.5q0 -118 76 -198t215 -80q218 0 325 132q59 72 86 152l44 129q68 207 173.5 699.5t168.5 701.5q11 37 32 58.5t40 21.5zM929 2113q-46 0 -46 47q0 15 21.5 45t47 75.5t48.5 93t45 94.5t45 92q23 31 51 31
q37 0 37 -35q0 -16 -15.5 -45t-37.5 -76.5t-61 -127.5t-89 -144q-3 -20 -18 -35t-28 -15z" />
    <glyph glyph-name="Ucircumflex" unicode="&#xdb;" horiz-adv-x="1309" 
d="M1346 1968q36 0 36 -35q0 -21 -22 -73.5t-37 -106.5t-39.5 -159t-51 -225.5t-54.5 -248.5q-101 -474 -155 -636t-97 -243q-138 -261 -450 -261q-168 0 -272 116t-104 277q0 70 17 119q35 198 65.5 377.5t82 461t141.5 606.5q21 31 44 31q44 0 44 -35q-2 -12 -6.5 -24.5
t-8.5 -24.5l-39 -125q-44 -213 -111.5 -587.5t-105 -558t-37.5 -261.5q0 -118 76 -198t215 -80q218 0 325 132q59 72 86 152l44 129q68 207 173.5 699.5t168.5 701.5q11 37 32 58.5t40 21.5zM1003 2439l-2 -25q0 -47 48 -133.5t106 -126.5q8 -13 8 -31.5t-17 -34.5t-40 -16
q-43 0 -100 77t-87 163q-8 -12 -14 -24q-29 -58 -158 -201q-18 -12 -35 -12q-36 0 -36 32.5t72.5 115t95.5 123.5t41 68q44 64 81 64t37 -39z" />
    <glyph glyph-name="Udieresis" unicode="&#xdc;" horiz-adv-x="1309" 
d="M1346 1968q36 0 36 -35q0 -21 -22 -73.5t-37 -106.5t-39.5 -159t-51 -225.5t-54.5 -248.5q-101 -474 -155 -636t-97 -243q-138 -261 -450 -261q-168 0 -272 116t-104 277q0 70 17 119q35 198 65.5 377.5t82 461t141.5 606.5q21 31 44 31q44 0 44 -35q-2 -12 -6.5 -24.5
t-8.5 -24.5l-39 -125q-44 -213 -111.5 -587.5t-105 -558t-37.5 -261.5q0 -118 76 -198t215 -80q218 0 325 132q59 72 86 152l44 129q68 207 173.5 699.5t168.5 701.5q11 37 32 58.5t40 21.5zM1091 2178q-49 17 -49 66.5t27 75.5q49 47 77 47q64 0 64 -63q0 -44 -32 -86.5
t-70 -42.5q-7 0 -17 3zM784 2351v2q33 -39 33 -70.5t-45 -75.5t-72 -44t-42 33.5t-15 61.5t7.5 48t20 35t28.5 24t39 9t46 -23z" />
    <glyph glyph-name="Yacute" unicode="&#xdd;" horiz-adv-x="881" 
d="M172 -61q-7 -17 -37 -17q-37 0 -37 37q0 49 72 66q40 9 77.5 17.5t76.5 16.5q47 131 66 248.5t29 196t23 170.5q-88 114 -226 900q-35 202 -54 343q0 26 15 45.5t38 19.5t45 -18q8 -11 8 -27.5t-10 -29.5q12 -86 25 -182q89 -656 206 -947q46 102 150 373.5t200.5 464
t225.5 348.5q13 16 35 16q41 0 41 -34q0 -22 -17 -41q-166 -178 -339 -619q-47 -119 -122.5 -319t-111.5 -271q-31 -120 -67 -313t-66 -309q52 6 102 6q199 0 199 -55q0 -22 -20.5 -39t-45.5 -17q-63 17 -162.5 17t-200 -24.5t-112.5 -24.5h-6v2zM669 2113q-46 0 -46 47
q0 15 21.5 45t47 75.5t48.5 93t45 94.5t45 92q23 31 51 31q37 0 37 -35q0 -16 -15.5 -45t-37.5 -76.5t-61 -127.5t-89 -144q-3 -20 -18 -35t-28 -15z" />
    <glyph glyph-name="Thorn" unicode="&#xde;" horiz-adv-x="1286" 
d="M584 2327q37 0 37 -33q0 -12 -3 -19l-6 -22q0 -71 -23 -158.5t-37.5 -142.5t-23.5 -115q182 158 332 158q306 0 418 -337q45 -137 45 -308q0 -336 -133 -526.5t-384 -265.5q-215 -66 -562 -66l-103 -472q-8 -24 -29.5 -39.5t-39.5 -15.5q-25 0 -25 27v6t2 8l459 2204
q8 32 8 56t22.5 42.5t45.5 18.5zM262 584q304 0 446 35.5t232 86.5q293 164 293 625q0 407 -190 523q-72 44 -191.5 44t-268.5 -96q-44 -29 -73 -61z" />
    <glyph glyph-name="germandbls" unicode="&#xdf;" horiz-adv-x="981" 
d="M463 1057q-35 3 -35 28q0 30 37 58l31 16l2 12h16q156 104 347 318q118 132 160 210t42 109t-19 55.5t-47 24.5q-299 0 -510 -540q-201 -512 -335 -1154q-64 -304 -117.5 -599t-83.5 -455q-8 -25 -30.5 -41.5t-41.5 -16.5q-26 0 -26 29v7q0 3 21 117t59.5 335.5t76.5 397
t89 391.5q129 549 229.5 816t155.5 379q209 426 538 426q145 0 145 -116q0 -98 -176 -327.5t-366 -381.5q141 -37 204.5 -148.5t63.5 -224.5q0 -477 -226 -688q-118 -110 -302 -110q-61 0 -108 28q-91 54 -91 109.5t40 76.5q13 7 28 7t26 -8q12 -23 22 -44t24 -38
q30 -37 98 -37q139 0 226.5 99.5t119.5 247.5t32 262.5t-10 173.5t-32.5 104t-58.5 72.5t-81.5 27.5t-136.5 -8z" />
    <glyph glyph-name="agrave" unicode="&#xe0;" horiz-adv-x="920" 
d="M150 0q-117 0 -117 147t109.5 360.5t257.5 369t241.5 155.5t106.5 -82q4 -25 6 -53q9 6 22 6q47 0 47 -45v-8q0 -3 -25 -90t-57 -290t-32 -347q9 -6 21 -13.5t30 -23t18 -36.5t-13 -37.5t-37 -16.5q-49 0 -88.5 50t-39.5 108q0 125 68 430q-85 -178 -220 -343
t-186.5 -203t-111.5 -38zM135 143q0 -37 31 -37q22 0 37 15q207 178 371 493q93 180 98.5 207t5.5 46t-10 36t-28 17t-53 -19q-77 -42 -189.5 -179t-187.5 -298t-75 -281zM445 1581q0 26 17.5 45t34.5 19q36 0 42 -35q22 -122 182 -328q8 -10 8 -29.5t-16.5 -37t-35 -17.5
t-34.5 15q-166 216 -198 368z" />
    <glyph glyph-name="aacute" unicode="&#xe1;" horiz-adv-x="920" 
d="M150 0q-117 0 -117 147t109.5 360.5t257.5 369t241.5 155.5t106.5 -82q4 -25 6 -53q9 6 22 6q47 0 47 -45v-8q0 -3 -25 -90t-57 -290t-32 -347q9 -6 21 -13.5t30 -23t18 -36.5t-13 -37.5t-37 -16.5q-49 0 -88.5 50t-39.5 108q0 125 68 430q-85 -178 -220 -343
t-186.5 -203t-111.5 -38zM135 143q0 -37 31 -37q22 0 37 15q207 178 371 493q93 180 98.5 207t5.5 46t-10 36t-28 17t-53 -19q-77 -42 -189.5 -179t-187.5 -298t-75 -281zM691 1198q-46 0 -46 47q0 15 21.5 45t47 75.5t48.5 93t45 94.5t45 92q23 31 51 31q37 0 37 -35
q0 -16 -15.5 -45t-37.5 -76.5t-61 -127.5t-89 -144q-3 -20 -18 -35t-28 -15z" />
    <glyph glyph-name="acircumflex" unicode="&#xe2;" horiz-adv-x="920" 
d="M150 0q-117 0 -117 147t109.5 360.5t257.5 369t241.5 155.5t106.5 -82q4 -25 6 -53q9 6 22 6q47 0 47 -45v-8q0 -3 -25 -90t-57 -290t-32 -347q9 -6 21 -13.5t30 -23t18 -36.5t-13 -37.5t-37 -16.5q-49 0 -88.5 50t-39.5 108q0 125 68 430q-85 -178 -220 -343
t-186.5 -203t-111.5 -38zM135 143q0 -37 31 -37q22 0 37 15q207 178 371 493q93 180 98.5 207t5.5 46t-10 36t-28 17t-53 -19q-77 -42 -189.5 -179t-187.5 -298t-75 -281zM766 1524l-2 -25q0 -47 48 -133.5t106 -126.5q8 -13 8 -31.5t-17 -34.5t-40 -16q-43 0 -100 77
t-87 163q-8 -12 -14 -24q-29 -58 -158 -201q-18 -12 -35 -12q-36 0 -36 32.5t72.5 115t95.5 123.5t41 68q44 64 81 64t37 -39z" />
    <glyph glyph-name="atilde" unicode="&#xe3;" horiz-adv-x="920" 
d="M150 0q-117 0 -117 147t109.5 360.5t257.5 369t241.5 155.5t106.5 -82q4 -25 6 -53q9 6 22 6q47 0 47 -45v-8q0 -3 -25 -90t-57 -290t-32 -347q9 -6 21 -13.5t30 -23t18 -36.5t-13 -37.5t-37 -16.5q-49 0 -88.5 50t-39.5 108q0 125 68 430q-85 -178 -220 -343
t-186.5 -203t-111.5 -38zM135 143q0 -37 31 -37q22 0 37 15q207 178 371 493q93 180 98.5 207t5.5 46t-10 36t-28 17t-53 -19q-77 -42 -189.5 -179t-187.5 -298t-75 -281zM932 1481q41 0 41 -97t-85 -132q-32 -13 -75.5 -13t-76 18.5t-62 40t-56.5 40t-50 18.5
q-49 0 -84 -74q-20 -24 -47 -24q-37 0 -37 35q0 10 4 22q70 139 155 139q46 0 111 -38.5t101.5 -56t75 -17.5t38.5 8v12l-10 56q0 26 18 44.5t39 18.5z" />
    <glyph glyph-name="adieresis" unicode="&#xe4;" horiz-adv-x="920" 
d="M150 0q-117 0 -117 147t109.5 360.5t257.5 369t241.5 155.5t106.5 -82q4 -25 6 -53q9 6 22 6q47 0 47 -45v-8q0 -3 -25 -90t-57 -290t-32 -347q9 -6 21 -13.5t30 -23t18 -36.5t-13 -37.5t-37 -16.5q-49 0 -88.5 50t-39.5 108q0 125 68 430q-85 -178 -220 -343
t-186.5 -203t-111.5 -38zM135 143q0 -37 31 -37q22 0 37 15q207 178 371 493q93 180 98.5 207t5.5 46t-10 36t-28 17t-53 -19q-77 -42 -189.5 -179t-187.5 -298t-75 -281zM852 1263q-49 17 -49 66.5t27 75.5q49 47 77 47q64 0 64 -63q0 -44 -32 -86.5t-70 -42.5q-7 0 -17 3z
M545 1436v2q33 -39 33 -70.5t-45 -75.5t-72 -44t-42 33.5t-15 61.5t7.5 48t20 35t28.5 24t39 9t46 -23z" />
    <glyph glyph-name="aring" unicode="&#xe5;" horiz-adv-x="920" 
d="M150 0q-117 0 -117 147t109.5 360.5t257.5 369t241.5 155.5t106.5 -82q4 -25 6 -53q9 6 22 6q47 0 47 -45v-8q0 -3 -25 -90t-57 -290t-32 -347q9 -6 21 -13.5t30 -23t18 -36.5t-13 -37.5t-37 -16.5q-49 0 -88.5 50t-39.5 108q0 125 68 430q-85 -178 -220 -343
t-186.5 -203t-111.5 -38zM135 143q0 -37 31 -37q22 0 37 15q207 178 371 493q93 180 98.5 207t5.5 46t-10 36t-28 17t-53 -19q-77 -42 -189.5 -179t-187.5 -298t-75 -281zM684 1497q8 7 23 7t26 -9q110 -78 110 -180q0 -65 -46.5 -111.5t-118.5 -46.5q-114 0 -170 77
q-21 29 -21 68t11.5 74t32.5 64t50 47.5t56 18.5t47 -9zM688 1246q59 0 59 61q0 33 -47 80h-12q-17 0 -32 10t-32 10t-29 -20.5t-12 -56.5t36.5 -60t68.5 -24z" />
    <glyph glyph-name="ae" unicode="&#xe6;" horiz-adv-x="1120" 
d="M750 937q104 110 211 110q62 0 97.5 -51.5t35.5 -121.5q0 -130 -68.5 -221.5t-168.5 -149.5t-230 -110l-4 -147q0 -172 104 -172q57 0 117.5 32.5t88 47t42.5 14.5q35 0 35 -37q0 -43 -105 -97t-175 -54t-105 23q-101 66 -101 284q0 28 2 56q-103 -145 -213 -260
q-80 -83 -151 -83t-100 37.5t-29 108.5q0 149 109.5 362t257.5 368.5t247 155.5q74 0 94 -57q6 -17 9 -38zM135 143q0 -37 31 -37q22 0 37 15q209 181 378 508q40 119 95 207q2 14 2 32t-10 35t-28 17t-53 -19q-77 -42 -189.5 -179t-187.5 -298t-75 -281zM935 950
q-53 0 -117 -75q5 -12 5 -21.5t-2 -11.5q-53 -56 -85 -93q-76 -152 -93 -257q60 32 123 62t115 71t85 99t33 142t-64 84z" />
    <glyph glyph-name="ccedilla" unicode="&#xe7;" horiz-adv-x="694" 
d="M236 -272q-37 0 -37 32.5t27 63.5q20 38 37.5 78t39.5 76q-21 -3 -57 -3q-77 0 -131 76.5t-54 172.5q0 179 66.5 371t175 322t229.5 130q88 0 116 -63q7 -17 16.5 -43.5t21.5 -33.5q8 -13 8 -31.5t-17 -34.5t-38 -16q-43 0 -55 63.5t-67 63.5q-77 0 -159.5 -117
t-139 -284t-56.5 -293q0 -182 133 -182q66 0 124 64q22 25 41 45t39 20q40 0 40 -35q0 -63 -77 -125q-24 -20 -55 -36l1 -7q0 -16 -12.5 -35t-40.5 -80q84 -4 154.5 -80t70.5 -159t-69 -160.5t-195 -77.5q-54 0 -104 16q-97 33 -97 70q0 20 17 36.5t40 16.5l15 -2
q86 -43 146 -43t105.5 37t45.5 83.5t-30 88.5q-57 82 -116 82q-34 0 -55 -43l-4 2q-24 -26 -43 -26z" />
    <glyph glyph-name="egrave" unicode="&#xe8;" horiz-adv-x="664" 
d="M518 168q35 0 35 -37q0 -43 -105 -97t-175 -54t-105 23t-57 64q-43 80 -43 193q0 200 60 377t160 293.5t216 116.5q62 0 97.5 -51.5t35.5 -121.5q0 -131 -68.5 -222t-168.5 -149t-230 -110l-4 -147q0 -172 104 -172q56 0 117.5 32.5t88.5 47t42 14.5zM543 870
q0 80 -67 80q-60 0 -141 -108t-134 -285q-13 -43 -15 -65q40 22 82 42t82 42q92 51 142.5 119.5t50.5 174.5zM314 1581q0 26 17.5 45t34.5 19q36 0 42 -35q22 -122 182 -328q8 -10 8 -29.5t-16.5 -37t-35 -17.5t-34.5 15q-166 216 -198 368z" />
    <glyph glyph-name="eacute" unicode="&#xe9;" horiz-adv-x="664" 
d="M518 168q35 0 35 -37q0 -43 -105 -97t-175 -54t-105 23t-57 64q-43 80 -43 193q0 200 60 377t160 293.5t216 116.5q62 0 97.5 -51.5t35.5 -121.5q0 -131 -68.5 -222t-168.5 -149t-230 -110l-4 -147q0 -172 104 -172q56 0 117.5 32.5t88.5 47t42 14.5zM543 870
q0 80 -67 80q-60 0 -141 -108t-134 -285q-13 -43 -15 -65q40 22 82 42t82 42q92 51 142.5 119.5t50.5 174.5zM560 1198q-46 0 -46 47q0 15 21.5 45t47 75.5t48.5 93t45 94.5t45 92q23 31 51 31q37 0 37 -35q0 -16 -15.5 -45t-37.5 -76.5t-61 -127.5t-89 -144q-3 -20 -18 -35
t-28 -15z" />
    <glyph glyph-name="ecircumflex" unicode="&#xea;" horiz-adv-x="664" 
d="M518 168q35 0 35 -37q0 -43 -105 -97t-175 -54t-105 23t-57 64q-43 80 -43 193q0 200 60 377t160 293.5t216 116.5q62 0 97.5 -51.5t35.5 -121.5q0 -131 -68.5 -222t-168.5 -149t-230 -110l-4 -147q0 -172 104 -172q56 0 117.5 32.5t88.5 47t42 14.5zM543 870
q0 80 -67 80q-60 0 -141 -108t-134 -285q-13 -43 -15 -65q40 22 82 42t82 42q92 51 142.5 119.5t50.5 174.5zM635 1524l-2 -25q0 -47 48 -133.5t106 -126.5q8 -13 8 -31.5t-17 -34.5t-40 -16q-43 0 -100 77t-87 163q-8 -12 -14 -24q-29 -58 -158 -201q-18 -12 -35 -12
q-36 0 -36 32.5t72.5 115t95.5 123.5t41 68q44 64 81 64t37 -39z" />
    <glyph glyph-name="edieresis" unicode="&#xeb;" horiz-adv-x="664" 
d="M518 168q35 0 35 -37q0 -43 -105 -97t-175 -54t-105 23t-57 64q-43 80 -43 193q0 200 60 377t160 293.5t216 116.5q62 0 97.5 -51.5t35.5 -121.5q0 -131 -68.5 -222t-168.5 -149t-230 -110l-4 -147q0 -172 104 -172q56 0 117.5 32.5t88.5 47t42 14.5zM543 870
q0 80 -67 80q-60 0 -141 -108t-134 -285q-13 -43 -15 -65q40 22 82 42t82 42q92 51 142.5 119.5t50.5 174.5zM723 1263q-49 17 -49 66.5t27 75.5q49 47 77 47q64 0 64 -63q0 -44 -32 -86.5t-70 -42.5q-7 0 -17 3zM416 1436v2q33 -39 33 -70.5t-45 -75.5t-72 -44t-42 33.5
t-15 61.5t7.5 48t20 35t28.5 24t39 9t46 -23z" />
    <glyph glyph-name="igrave" unicode="&#xec;" horiz-adv-x="487" 
d="M65 1581q0 26 17.5 45t34.5 19q36 0 42 -35q22 -122 182 -328q8 -10 8 -29.5t-16.5 -37t-35 -17.5t-34.5 15q-166 216 -198 368zM242 909v20q0 14 -15 68q0 25 17 45.5t41.5 20.5t40.5 -31t16 -68t-94 -442t-94 -426.5t20 -21.5q13 0 37 25.5t41 25.5q33 0 33 -41.5
t-62 -72.5t-90 -31q-70 0 -70 112q0 23 9.5 51.5t20 79t30 137.5t40 180t50 225.5t29.5 143.5z" />
    <glyph glyph-name="iacute" unicode="&#xed;" horiz-adv-x="487" 
d="M394 1148q-46 0 -46 47q0 15 21.5 45t47 75.5t48.5 93t45 94.5t45 92q23 31 51 31q37 0 37 -35q0 -16 -15.5 -45t-37.5 -76.5t-61 -127.5t-89 -144q-3 -20 -18 -35t-28 -15zM242 909v20q0 14 -15 68q0 25 17 45.5t41.5 20.5t40.5 -31t16 -68t-94 -442t-94 -426.5
t20 -21.5q13 0 37 25.5t41 25.5q33 0 33 -41.5t-62 -72.5t-90 -31q-70 0 -70 112q0 23 9.5 51.5t20 79t30 137.5t40 180t50 225.5t29.5 143.5z" />
    <glyph glyph-name="icircumflex" unicode="&#xee;" horiz-adv-x="487" 
d="M452 1528l-2 -25q0 -47 48 -133.5t106 -126.5q8 -13 8 -31.5t-17 -34.5t-40 -16q-43 0 -100 77t-87 163q-8 -12 -14 -24q-29 -58 -158 -201q-18 -12 -35 -12q-36 0 -36 32.5t72.5 115t95.5 123.5t41 68q44 64 81 64t37 -39zM242 909v20q0 14 -15 68q0 25 17 45.5
t41.5 20.5t40.5 -31t16 -68t-94 -442t-94 -426.5t20 -21.5q13 0 37 25.5t41 25.5q33 0 33 -41.5t-62 -72.5t-90 -31q-70 0 -70 112q0 23 9.5 51.5t20 79t30 137.5t40 180t50 225.5t29.5 143.5z" />
    <glyph glyph-name="idieresis" unicode="&#xef;" horiz-adv-x="487" 
d="M242 909v20q0 14 -15 68q0 25 17 45.5t41.5 20.5t40.5 -31t16 -68t-94 -442t-94 -426.5t20 -21.5q13 0 37 25.5t41 25.5q33 0 33 -41.5t-62 -72.5t-90 -31q-70 0 -70 112q0 23 9.5 51.5t20 79t30 137.5t40 180t50 225.5t29.5 143.5zM506 1210q-49 17 -49 66.5t27 75.5
q49 47 77 47q64 0 64 -63q0 -44 -32 -86.5t-70 -42.5q-7 0 -17 3zM199 1383v2q33 -39 33 -70.5t-45 -75.5t-72 -44t-42 33.5t-15 61.5t7.5 48t20 35t28.5 24t39 9t46 -23z" />
    <glyph glyph-name="eth" unicode="&#xf0;" horiz-adv-x="891" 
d="M572 934q-22 14 -63 14t-87 -36.5t-103.5 -123.5t-106 -251.5t-48.5 -277.5t64 -161q21 -16 56 -16q72 0 150.5 116.5t140.5 277t62 288.5t-65 170zM905 1677q37 0 37 -42t-43 -60l-111 -51q54 -125 54 -285q0 -59 -20 -153t-29 -144.5t-38.5 -188t-93 -317t-168.5 -317
t-244 -137.5q-92 0 -139 97q-38 77 -38 159q0 309 114 517q55 99 96.5 146t106.5 90t160 43t137 -92l37 143q23 93 23 193.5t-44 200.5l-192 -101l-12 -2q-37 0 -37 38.5t26 60.5q104 38 175 77q-106 158 -322 244q-33 13 -33 41t18 37.5t32.5 9.5t30.5 -9t80.5 -41
t142.5 -92t132 -138q39 21 97.5 47t64.5 26z" />
    <glyph glyph-name="ntilde" unicode="&#xf1;" horiz-adv-x="913" 
d="M698 810q0 99 -54 99q-72 0 -275 -413q-92 -187 -128.5 -282.5t-54.5 -134.5t-35.5 -59t-39 -20t-25.5 10.5t-4 38t80.5 472t93 467.5t22.5 29.5t36 6.5t40.5 -20t14.5 -35.5t-4 -30.5q-7 -27 -21 -67q-48 -137 -92 -388l-21 -121q23 48 52 115.5t86 193.5t127 225
q90 130 168 130q137 0 137 -221q0 -83 -23.5 -207t-52 -271t-31.5 -243l-12 -55q0 -22 -6.5 -31.5t-39 -9.5t-47 12t-9.5 43l100 598q18 111 18 169zM839 1481q41 0 41 -97t-85 -132q-32 -13 -75.5 -13t-76 18.5t-62 40t-56.5 40t-50 18.5q-49 0 -84 -74q-20 -24 -47 -24
q-37 0 -37 35q0 10 4 22q70 139 155 139q46 0 111 -38.5t101.5 -56t75 -17.5t38.5 8v12l-10 56q0 26 18 44.5t39 18.5z" />
    <glyph glyph-name="ograve" unicode="&#xf2;" horiz-adv-x="780" 
d="M530 1034q189 0 189 -286q0 -223 -123 -479q-83 -172 -200 -248q-60 -39 -124 -39q-113 0 -162 90t-49 194q0 186 62.5 361t170 291t236.5 116zM262 703q-108 -216 -108 -422q0 -143 79 -192q24 -15 55 -15q64 0 143 111t133 273.5t54 279t-13.5 147.5t-31 43t-58 12
t-88.5 -32q-93 -60 -165 -205zM344 1581q0 26 17.5 45t34.5 19q36 0 42 -35q22 -122 182 -328q8 -10 8 -29.5t-16.5 -37t-35 -17.5t-34.5 15q-166 216 -198 368z" />
    <glyph glyph-name="oacute" unicode="&#xf3;" horiz-adv-x="780" 
d="M530 1034q189 0 189 -286q0 -223 -123 -479q-83 -172 -200 -248q-60 -39 -124 -39q-113 0 -162 90t-49 194q0 186 62.5 361t170 291t236.5 116zM262 703q-108 -216 -108 -422q0 -143 79 -192q24 -15 55 -15q64 0 143 111t133 273.5t54 279t-13.5 147.5t-31 43t-58 12
t-88.5 -32q-93 -60 -165 -205zM591 1198q-46 0 -46 47q0 15 21.5 45t47 75.5t48.5 93t45 94.5t45 92q23 31 51 31q37 0 37 -35q0 -16 -15.5 -45t-37.5 -76.5t-61 -127.5t-89 -144q-3 -20 -18 -35t-28 -15z" />
    <glyph glyph-name="ocircumflex" unicode="&#xf4;" horiz-adv-x="780" 
d="M530 1034q189 0 189 -286q0 -223 -123 -479q-83 -172 -200 -248q-60 -39 -124 -39q-113 0 -162 90t-49 194q0 186 62.5 361t170 291t236.5 116zM262 703q-108 -216 -108 -422q0 -143 79 -192q24 -15 55 -15q64 0 143 111t133 273.5t54 279t-13.5 147.5t-31 43t-58 12
t-88.5 -32q-93 -60 -165 -205zM665 1524l-2 -25q0 -47 48 -133.5t106 -126.5q8 -13 8 -31.5t-17 -34.5t-40 -16q-43 0 -100 77t-87 163q-8 -12 -14 -24q-29 -58 -158 -201q-18 -12 -35 -12q-36 0 -36 32.5t72.5 115t95.5 123.5t41 68q44 64 81 64t37 -39z" />
    <glyph glyph-name="otilde" unicode="&#xf5;" horiz-adv-x="780" 
d="M530 1034q189 0 189 -286q0 -223 -123 -479q-83 -172 -200 -248q-60 -39 -124 -39q-113 0 -162 90t-49 194q0 186 62.5 361t170 291t236.5 116zM262 703q-108 -216 -108 -422q0 -143 79 -192q24 -15 55 -15q64 0 143 111t133 273.5t54 279t-13.5 147.5t-31 43t-58 12
t-88.5 -32q-93 -60 -165 -205zM831 1481q41 0 41 -97t-85 -132q-32 -13 -75.5 -13t-76 18.5t-62 40t-56.5 40t-50 18.5q-49 0 -84 -74q-20 -24 -47 -24q-37 0 -37 35q0 10 4 22q70 139 155 139q46 0 111 -38.5t101.5 -56t75 -17.5t38.5 8v12l-10 56q0 26 18 44.5t39 18.5z
" />
    <glyph glyph-name="odieresis" unicode="&#xf6;" horiz-adv-x="780" 
d="M530 1034q189 0 189 -286q0 -223 -123 -479q-83 -172 -200 -248q-60 -39 -124 -39q-113 0 -162 90t-49 194q0 186 62.5 361t170 291t236.5 116zM262 703q-108 -216 -108 -422q0 -143 79 -192q24 -15 55 -15q64 0 143 111t133 273.5t54 279t-13.5 147.5t-31 43t-58 12
t-88.5 -32q-93 -60 -165 -205zM753 1263q-49 17 -49 66.5t27 75.5q49 47 77 47q64 0 64 -63q0 -44 -32 -86.5t-70 -42.5q-7 0 -17 3zM446 1436v2q33 -39 33 -70.5t-45 -75.5t-72 -44t-42 33.5t-15 61.5t7.5 48t20 35t28.5 24t39 9t46 -23z" />
    <glyph glyph-name="divide" unicode="&#xf7;" horiz-adv-x="897" 
d="M782 600l-684 12q-37 4 -37 27q0 34 45 58q13 7 27 10q173 -2 343 -6.5t341 -6.5q27 -5 27 -26t-19.5 -40.5t-42.5 -27.5zM462 932q-81 0 -81 66q0 58 47 114.5t87 56.5t71.5 -27t31.5 -59t-16.5 -58t-58 -59.5t-81.5 -33.5zM256 213q-39 0 -39 115q0 37 34 66.5t75 29.5
t78 -26q36 -27 36 -59t-26 -63q-54 -64 -129 -71q-22 3 -27 8h-2z" />
    <glyph glyph-name="oslash" unicode="&#xf8;" horiz-adv-x="774" 
d="M611 1013q100 -55 100 -271.5t-123 -472.5q-83 -172 -200 -248q-60 -39 -109.5 -39t-71.5 7q-30 -50 -57 -50t-27 28q-2 17 15 59q-85 78 -85 267q0 252 133 488q86 155 207 220q61 33 129 33q9 0 14 -1q14 17 31 20h13q32 0 32 -29q0 -7 -1 -11zM442 582
q-39 -89 -96 -237t-70.5 -188t-28.5 -79q12 -4 38 -4t65 31q121 98 206 353q54 163 54 295.5t-36 166.5q-16 -73 -33.5 -113.5t-32.5 -75.5zM498 938q-95 -13 -180 -130q-118 -158 -160 -398q-13 -70 -13 -146t38 -133q11 23 28 66l123 317q27 71 56.5 133t41.5 91.5t25 65
t22 63.5t12 41.5t7 29.5z" />
    <glyph glyph-name="ugrave" unicode="&#xf9;" horiz-adv-x="870" 
d="M598 -49q-61 0 -61 164q0 106 20.5 217t42.5 217q-37 -66 -70 -135.5t-58 -112t-40 -71.5q-129 -246 -239.5 -246t-110.5 219q0 281 89 637l31 124q19 68 64 68q26 0 35 -35q-3 -32 -16 -59t-19 -60q-88 -444 -88 -606l-2 -96q0 -82 27 -82q78 0 265 368q29 56 71 141
t66 129.5t43 85.5q79 173 136 173q35 0 35 -38.5t-39 -126.5t-64 -180q-72 -257 -89 -537v-11q0 -30 12.5 -44.5t18.5 -21t6 -27t-23.5 -37.5t-42.5 -17zM324 1581q0 26 17.5 45t34.5 19q36 0 42 -35q22 -122 182 -328q8 -10 8 -29.5t-16.5 -37t-35 -17.5t-34.5 15
q-166 216 -198 368z" />
    <glyph glyph-name="uacute" unicode="&#xfa;" horiz-adv-x="870" 
d="M598 -49q-61 0 -61 164q0 106 20.5 217t42.5 217q-37 -66 -70 -135.5t-58 -112t-40 -71.5q-129 -246 -239.5 -246t-110.5 219q0 281 89 637l31 124q19 68 64 68q26 0 35 -35q-3 -32 -16 -59t-19 -60q-88 -444 -88 -606l-2 -96q0 -82 27 -82q78 0 265 368q29 56 71 141
t66 129.5t43 85.5q79 173 136 173q35 0 35 -38.5t-39 -126.5t-64 -180q-72 -257 -89 -537v-11q0 -30 12.5 -44.5t18.5 -21t6 -27t-23.5 -37.5t-42.5 -17zM570 1198q-46 0 -46 47q0 15 21.5 45t47 75.5t48.5 93t45 94.5t45 92q23 31 51 31q37 0 37 -35q0 -16 -15.5 -45
t-37.5 -76.5t-61 -127.5t-89 -144q-3 -20 -18 -35t-28 -15z" />
    <glyph glyph-name="ucircumflex" unicode="&#xfb;" horiz-adv-x="870" 
d="M598 -49q-61 0 -61 164q0 106 20.5 217t42.5 217q-37 -66 -70 -135.5t-58 -112t-40 -71.5q-129 -246 -239.5 -246t-110.5 219q0 281 89 637l31 124q19 68 64 68q26 0 35 -35q-3 -32 -16 -59t-19 -60q-88 -444 -88 -606l-2 -96q0 -82 27 -82q78 0 265 368q29 56 71 141
t66 129.5t43 85.5q79 173 136 173q35 0 35 -38.5t-39 -126.5t-64 -180q-72 -257 -89 -537v-11q0 -30 12.5 -44.5t18.5 -21t6 -27t-23.5 -37.5t-42.5 -17zM645 1524l-2 -25q0 -47 48 -133.5t106 -126.5q8 -13 8 -31.5t-17 -34.5t-40 -16q-43 0 -100 77t-87 163
q-8 -12 -14 -24q-29 -58 -158 -201q-18 -12 -35 -12q-36 0 -36 32.5t72.5 115t95.5 123.5t41 68q44 64 81 64t37 -39z" />
    <glyph glyph-name="udieresis" unicode="&#xfc;" horiz-adv-x="870" 
d="M598 -49q-61 0 -61 164q0 106 20.5 217t42.5 217q-37 -66 -70 -135.5t-58 -112t-40 -71.5q-129 -246 -239.5 -246t-110.5 219q0 281 89 637l31 124q19 68 64 68q26 0 35 -35q-3 -32 -16 -59t-19 -60q-88 -444 -88 -606l-2 -96q0 -82 27 -82q78 0 265 368q29 56 71 141
t66 129.5t43 85.5q79 173 136 173q35 0 35 -38.5t-39 -126.5t-64 -180q-72 -257 -89 -537v-11q0 -30 12.5 -44.5t18.5 -21t6 -27t-23.5 -37.5t-42.5 -17zM733 1263q-49 17 -49 66.5t27 75.5q49 47 77 47q64 0 64 -63q0 -44 -32 -86.5t-70 -42.5q-7 0 -17 3zM426 1436v2
q33 -39 33 -70.5t-45 -75.5t-72 -44t-42 33.5t-15 61.5t7.5 48t20 35t28.5 24t39 9t46 -23z" />
    <glyph glyph-name="yacute" unicode="&#xfd;" horiz-adv-x="860" 
d="M710 1009.5q17 24.5 50 24.5t33 -24t-89.5 -418.5t-121.5 -540.5q40 35 71 66t55 52t42 21q38 0 38 -34q0 -21 -16 -41q-112 -100 -213 -176q-86 -473 -164 -623q-21 -41 -55 -78q-81 -92 -185 -92t-161 76.5t-57 149t18 125.5t49 97t73 81.5t90 72.5t99.5 69t102.5 72
l100 76q11 44 76 254t76 250q-86 -251 -211 -391q-84 -94 -160 -94t-125 61t-49 172q0 172 98 542q49 184 49 200q-4 29 4 40q29 39 68 39t39 -40q0 -37 -76 -345t-76 -412.5t25.5 -131.5t62.5 -27q79 0 166 131t149.5 361t85 320.5t39.5 115zM444 -154q-82 -63 -155.5 -113
t-128.5 -100q-119 -108 -119 -241q0 -84 55 -130q23 -18 61.5 -18t71 26t58.5 67t46.5 93t36.5 104t27.5 99.5t20.5 79.5zM548 1198q-46 0 -46 47q0 15 21.5 45t47 75.5t48.5 93t45 94.5t45 92q23 31 51 31q37 0 37 -35q0 -16 -15.5 -45t-37.5 -76.5t-61 -127.5t-89 -144
q-3 -20 -18 -35t-28 -15z" />
    <glyph glyph-name="thorn" unicode="&#xfe;" horiz-adv-x="858" 
d="M240 276q29 -219 147 -219q84 0 184 121q64 76 105 233t41 257.5t-23 159t-48.5 86.5t-61.5 28q-98 0 -188.5 -150t-112.5 -274l-27 -139v-6q0 -51 -16 -97zM-49 -848q-39 0 -39 45q0 75 34.5 230t42 191t11.5 54l395 1905q10 28 20.5 38.5t34.5 10.5q42 0 42 -55
q-6 -23 -22 -99t-29 -137t-26 -124.5t-42.5 -201t-32.5 -159.5q120 192 260 192q91 0 151 -110t60 -200q0 -179 -48 -352t-140 -282q-110 -131 -263 -131q-116 0 -170 107q-97 -414 -184 -873q-6 -30 -39 -45q-9 -4 -16 -4z" />
    <glyph glyph-name="ydieresis" unicode="&#xff;" horiz-adv-x="860" 
d="M710 1009.5q17 24.5 50 24.5t33 -24t-89.5 -418.5t-121.5 -540.5q40 35 71 66t55 52t42 21q38 0 38 -34q0 -21 -16 -41q-112 -100 -213 -176q-86 -473 -164 -623q-21 -41 -55 -78q-81 -92 -185 -92t-161 76.5t-57 149t18 125.5t49 97t73 81.5t90 72.5t99.5 69t102.5 72
l100 76q11 44 76 254t76 250q-86 -251 -211 -391q-84 -94 -160 -94t-125 61t-49 172q0 172 98 542q49 184 49 200q-4 29 4 40q29 39 68 39t39 -40q0 -37 -76 -345t-76 -412.5t25.5 -131.5t62.5 -27q79 0 166 131t149.5 361t85 320.5t39.5 115zM444 -154q-82 -63 -155.5 -113
t-128.5 -100q-119 -108 -119 -241q0 -84 55 -130q23 -18 61.5 -18t71 26t58.5 67t46.5 93t36.5 104t27.5 99.5t20.5 79.5zM710 1263q-49 17 -49 66.5t27 75.5q49 47 77 47q64 0 64 -63q0 -44 -32 -86.5t-70 -42.5q-7 0 -17 3zM403 1436v2q33 -39 33 -70.5t-45 -75.5t-72 -44
t-42 33.5t-15 61.5t7.5 48t20 35t28.5 24t39 9t46 -23z" />
    <glyph glyph-name="dotlessi" unicode="&#x131;" horiz-adv-x="438" 
d="M242 909v20q0 14 -15 68q0 25 17 45.5t41.5 20.5t40.5 -31t16 -68t-94 -442t-94 -426.5t20 -21.5q13 0 37 25.5t41 25.5q33 0 33 -41.5t-62 -72.5t-90 -31q-70 0 -70 112q0 23 9.5 51.5t20 79t30 137.5t40 180t50 225.5t29.5 143.5z" />
    <glyph glyph-name="OE" unicode="&#x152;" horiz-adv-x="2083" 
d="M2103 1982q101 0 101 -34q0 -21 -15 -38.5t-35 -23.5h-137q-431 0 -590 -53q-22 -62 -41.5 -154t-61 -267t-81.5 -351q59 -8 144 -8h126q244 0 308 4q34 -9 34 -33q0 -42 -41 -55t-128 -13l-173 2h-32q-203 0 -258 9q-60 -264 -76 -376t-41.5 -251t-79.5 -248l791 -16
q102 0 141 4q35 -10 35 -34q0 -42 -46 -55q-31 -9 -104 -9h-14q-154 0 -444.5 11t-350.5 11l-69 -6q-35 0 -46.5 14.5t-11.5 27.5t7 24q55 86 108 353q-175 -328 -420 -427q-84 -35 -176 -35q-365 0 -365 649q0 439 169 810q183 405 477 405q114 0 215 -82q18 -20 18 -41
q0 -49 -33 -49q-8 0 -47 21q-91 50 -185 50q-123 0 -244 -160.5t-195 -412.5t-74 -498q0 -598 264 -598q245 0 432 293q158 247 237 614q46 216 46 421t-79 367q-57 114 -148 140q-46 12 -87.5 20t-70.5 18t-29 30q0 38 51 45q416 0 454 -570q48 204 79 328l8 35
q-33 3 -33 39.5t60 68.5v5q0 20 18 41q25 18 43 18q30 0 35 -31q200 51 605 51h56z" />
    <glyph glyph-name="oe" unicode="&#x153;" horiz-adv-x="1130" 
d="M697 854q126 193 274 193q62 0 97.5 -51.5t35.5 -121.5q0 -130 -68.5 -221.5t-168.5 -149.5t-230 -110l-4 -147q0 -172 104 -172q56 0 117.5 32.5t88.5 47t42 14.5q35 0 35 -37q0 -43 -105 -97t-196 -54q-152 0 -179 214q-129 -212 -286 -212q-110 0 -158.5 89t-48.5 195
q0 186 62.5 361t170 291t236.5 116q149 0 181 -180zM247 703q-108 -216 -108 -422q0 -142 80 -192q24 -15 55 -15q66 0 145 112t131 273q18 99 42 168q12 84 12 130.5t-3.5 79.5t-13.5 56t-27.5 35t-58 12t-88.5 -32q-94 -61 -166 -205zM1010 870q0 80 -68 80
q-60 0 -127.5 -93t-118.5 -219q-12 -76 -29 -139q39 20 80 40q154 75 208.5 150.5t54.5 180.5z" />
    <glyph glyph-name="circumflex" unicode="&#x2c6;" horiz-adv-x="1706" 
d="M821 2435l-2 -25q0 -47 48 -133.5t106 -126.5q8 -13 8 -31.5t-17 -34.5t-40 -16q-43 0 -100 77t-87 163q-8 -12 -14 -24q-29 -58 -158 -201q-18 -12 -35 -12q-36 0 -36 32.5t72.5 115t95.5 123.5t41 68q44 64 81 64t37 -39z" />
    <glyph glyph-name="caron" unicode="&#x2c7;" horiz-adv-x="1325" 
d="M592 2150q-75 142 -154 183q-24 12 -39.5 21t-15.5 29t18 36t45 16q54 0 117.5 -73t112.5 -158q107 178 293 362q20 17 38 17q37 0 37 -35q0 -21 -16 -41q-202 -207 -297 -373q-17 -31 -32.5 -48.5t-38.5 -17.5t-35.5 22.5t-32.5 59.5z" />
    <glyph glyph-name="ring" unicode="&#x2da;" horiz-adv-x="1362" 
d="M715 2408q8 7 23 7t26 -9q110 -78 110 -180q0 -65 -46.5 -111.5t-118.5 -46.5q-114 0 -170 77q-21 29 -21 68t11.5 74t32.5 64t50 47.5t56 18.5t47 -9zM719 2157q59 0 59 61q0 33 -47 80h-12q-17 0 -32 10t-32 10t-29 -20.5t-12 -56.5t36.5 -60t68.5 -24z" />
    <glyph glyph-name="tilde" unicode="&#x2dc;" horiz-adv-x="1706" 
d="M1032 2392q41 0 41 -97t-85 -132q-32 -13 -75.5 -13t-76 18.5t-62 40t-56.5 40t-50 18.5q-49 0 -84 -74q-20 -24 -47 -24q-37 0 -37 35q0 10 4 22q70 139 155 139q46 0 111 -38.5t101.5 -56t75 -17.5t38.5 8v12l-10 56q0 26 18 44.5t39 18.5z" />
    <glyph glyph-name="uni0401" unicode="&#x401;" horiz-adv-x="1145" 
d="M453 1188q-160 164 -160 418q0 78 39 154.5t97 127.5q114 99 247 99q257 0 392 -199q44 -64 79 -148q-3 -21 -21.5 -39t-40 -18t-32.5 29q-65 148 -145 213t-224 65t-218.5 -88t-74.5 -206q0 -230 180 -361q8 2 18 2h21q91 0 156 -25q121 -46 121 -100q0 -46 -51 -70
q-14 -6 -43.5 -6t-114 29.5t-141.5 60.5q-152 -45 -273 -231t-121 -382t69 -305q90 -140 300 -140t362.5 127.5t176.5 330.5q23 33 55.5 33t32.5 -49q-91 -375 -385 -492q-105 -41 -235 -41q-240 0 -366 161q-110 139 -110 351t114.5 408.5t295.5 290.5zM944 2172
q-49 17 -49 66.5t27 75.5q49 47 77 47q64 0 64 -63q0 -44 -32 -86.5t-70 -42.5q-7 0 -17 3zM637 2345v2q33 -39 33 -70.5t-45 -75.5t-72 -44t-42 33.5t-15 61.5t7.5 48t20 35t28.5 24t39 9t46 -23z" />
    <glyph glyph-name="uni0402" unicode="&#x402;" horiz-adv-x="961" 
d="M1253 1989l97 -2q14 0 28 2q35 -9 35 -35q0 -62 -100 -62q-35 0 -248.5 -19t-321 -19t-135.5 8q-11 -53 -26 -127t-33 -160.5t-88.5 -430.5t-118.5 -550q209 430 395 430q125 0 125 -180q0 -81 -70 -493.5t-90 -566.5q-82 -632 -612 -632q-111 0 -184 40q-23 12 -23 30
t15.5 36t35.5 23q66 -26 175 -26q399 0 499 524l174 1032q0 50 -11.5 80.5t-44.5 30.5q-109 0 -310 -348q-93 -162 -115 -231t-31.5 -107t-17.5 -78.5t-16 -67t-5.5 -38.5t2.5 -21q0 -47 -75 -47q-11 0 -23 15.5t-12 41.5q25 128 168 777.5t211 1043.5l-158 4t-170.5 2
t-196.5 -6q-43 4 -43 34q0 66 148 66q16 0 440 -8q9 22 38 22t48 -22q9 -1 35.5 -1t120.5 7q400 29 489 29z" />
    <glyph glyph-name="uni0403" unicode="&#x403;" horiz-adv-x="1004" 
d="M721 2193q0 13 41.5 129t75.5 185q22 30 51 30q37 0 37 -34q0 -16 -12.5 -38.5t-26.5 -56.5t-26 -68.5t-23.5 -70t-21.5 -62.5q-18 -46 -56.5 -46t-38.5 32zM260 1976l107 -16h26q29 59 70 59q33 0 33 -49q-2 -4 -2 -10q24 1 38 2.5t25.5 2.5t35.5 4t159 3l258 8
q168 0 168 -38q0 -22 -19 -40t-45 -18q-42 8 -102 8l-271 -16q-98 0 -120.5 4t-41 4t-104.5 -6q-54 -261 -138 -715t-129.5 -690.5t-105.5 -472.5q-5 -20 -23 -29.5t-34 -9.5q-35 0 -35 33q0 10 21 98t52.5 239.5t59.5 296t54 285t73.5 398t96.5 493.5q-9 14 -9 25t1 15.5
t1 10.5q-11 -2 -24 -2h-29q-116 0 -121 52q0 57 42 66q14 3 32 5z" />
    <glyph glyph-name="uni0404" unicode="&#x404;" horiz-adv-x="1049" 
d="M913 2017l156 -6q35 -9 35 -35q0 -18 -14.5 -35.5t-34.5 -23.5l-156 8q-202 0 -365 -203t-245 -602q4 2 31 2q80 0 207 -131t221 -131q123 0 226 132q27 36 58 69q20 16 41 16q35 0 35 -35q0 -24 -64 -96.5t-98 -101.5q-80 -66 -143 -70l-76 -2q-113 0 -238 117
q-81 76 -123 103t-79 34q-10 0 -19 -6q-6 -32 -10.5 -64t-25.5 -158t-21 -254q0 -241 81 -382.5t223 -141.5t249 93q34 29 59 65q21 17 41 17q37 0 37 -33t-53 -86q-146 -146 -281 -146q-185 0 -244 39t-90 80.5t-49 89t-28.5 100t-23.5 102.5t-13 196t37 362v8q0 3 2 8
q-12 -4 -25 -4t-23 11t-10 23t24 46t58 66q146 774 584 938q64 22 147 22z" />
    <glyph glyph-name="uni0405" unicode="&#x405;" horiz-adv-x="1147" 
d="M862 1980q239 0 316 -258q8 -13 8 -31.5t-17.5 -34.5t-35.5 -16q-31 0 -37 38q-14 90 -76 153t-158 63t-145 -67t-49 -158t24.5 -187t61.5 -192t79.5 -192t79.5 -193q86 -225 86 -404.5t-99 -328.5q-127 -195 -400 -195q-209 0 -361.5 104t-152.5 298t116 335
q42 51 103 105q20 17 38 17q40 0 40 -33q0 -17 -9 -31q-102 -94 -135 -156q-55 -108 -55 -208t35 -160t93 -100q114 -80 296.5 -80t295.5 144q97 123 97 300.5t-166 563.5t-166 536.5t72 259t221 108.5z" />
    <glyph glyph-name="uni0406" unicode="&#x406;" horiz-adv-x="555" 
d="M315 1874q-39 0 -39 38q0 17 19 34.5t45 19.5h175q104 0 230 -2q31 -11 31 -32t-16 -38t-39 -22h-65q-28 0 -78 2q-296 -1190 -404 -1782q189 -5 206 -38q5 -8 5 -21t-17.5 -31.5t-41.5 -21.5q-56 0 -116.5 9t-93.5 13t-80 4t-99 -16h-11q-21 0 -31 10.5t-10 24.5
q0 69 193 69h8q85 456 215 1009t180 771q-15 -1 -25 -1h-54z" />
    <glyph glyph-name="uni0407" unicode="&#x407;" horiz-adv-x="604" 
d="M-63 -10h-11q-21 0 -31 10.5t-10 24.5q0 69 193 69h8q-4 8 -4 21q33 287 116 637t112 484t71 307.5t102 324.5q-62 -4 -157 -4h-11q-39 6 -39 34q0 20 19 38t45 20h10q77 8 150 8t127.5 -3t152.5 -5q31 -11 31 -32.5t-16 -38t-39 -21.5q-30 0 -71 1l-61 1q-21 1 -46 2
q-92 -227 -162 -559.5t-101 -462.5t-74 -322.5t-65 -394.5q-3 -22 -18 -37q227 -6 227 -53q0 -19 -17.5 -37.5t-41.5 -21.5q-56 0 -116.5 9t-93.5 13t-80 4t-99 -16zM802 2148q-49 16 -49 65.5t27 75.5q49 47 77 47q64 0 64 -63q0 -44 -32 -86.5t-70 -42.5q-7 0 -17 4z
M495 2320v2q33 -39 33 -71t-45 -75.5t-71.5 -43.5t-42 33.5t-15.5 61.5t7.5 48t20 35t28.5 24t39 9t46 -23z" />
    <glyph glyph-name="uni0408" unicode="&#x408;" horiz-adv-x="1044" 
d="M983 1962q13 8 25.5 8t25.5 -8q11 8 24 8q29 0 38 -35q-60 -224 -124 -559.5t-83 -433.5t-48.5 -252.5t-91.5 -323t-171 -272.5q-131 -121 -335.5 -121t-316.5 238q-59 125 -59 154.5t16.5 48t30.5 18.5q36 0 42 -27q16 -70 57 -151t104.5 -137t160 -56t177.5 54.5
t139 148.5q96 157 168 496q15 74 34.5 166.5t40.5 194t43 206.5t43 203.5t39.5 185.5t32.5 152q-72 -41 -148 -41t-190 30.5t-176 36.5q-28 13 -28 34t17.5 39.5t39.5 21.5q52 -6 161.5 -36t177 -30t134.5 39z" />
    <glyph glyph-name="uni0409" unicode="&#x409;" horiz-adv-x="1933" 
d="M1149 752q-29 4 -29 29t13 42l45 54l53 229q114 519 164 696q-109 -73 -201 -257l-45 -91q-96 -194 -198 -514q-28 -87 -50.5 -156t-68 -212.5t-129 -294t-155.5 -232.5q-116 -133 -239 -133q-145 0 -299 189q-95 117 -106 178q-5 24 -15 37.5t-10 31t16 34.5t36 17.5
t30.5 -11.5t17.5 -29t12 -36t44 -86.5t101 -132.5q95 -98 200 -98q138 0 282 286q82 165 136.5 323.5t138.5 420.5t160.5 418.5t138 252t139.5 151.5q16 11 43.5 30.5t55.5 30.5q25 66 67 66q31 0 31 -50q-92 -291 -205 -829l-27 -119q54 33 138 33t160 -41t128 -108
q109 -138 109 -324q0 -114 -81 -247q-129 -212 -323 -288q-65 -26 -119 -26q-100 0 -171.5 84t-71.5 206q9 130 84 476zM1268 858q-9 -45 -19 -90.5t-26 -119.5t-21 -104.5t-24 -95t-19 -157.5t47.5 -152t101.5 -59t106 22q102 43 186 144q133 159 133 301.5t-91 259.5
t-218 117q-64 0 -97 -18.5t-59 -47.5z" />
    <glyph glyph-name="uni040A" unicode="&#x40a;" horiz-adv-x="1757" 
d="M-211 609l4 -19q0 -23 -16.5 -40.5t-36.5 -17.5q-43 0 -43 60q0 118 242 266q72 44 129 65.5t111.5 45.5t90 35.5t52.5 17.5q126 523 129 899v16q23 43 59 45q2 0 8 -2h4l2 -2q13 -6 19 -22v-3q0 -3 2 -5v-15q-3 -384 -123 -884q296 75 719 96q120 555 196 790
q8 22 26.5 36t35.5 14q31 0 31 -50q-74 -236 -125 -463t-72 -323l530 16q35 -10 35 -35q0 -18 -14.5 -35.5t-34.5 -23.5q-134 -6 -266.5 -8t-270.5 -8l-14 -68q54 33 138 33t160 -41t128 -108q109 -138 109 -324q0 -114 -81 -247q-129 -212 -323 -288q-65 -26 -119 -26
q-101 0 -172 83.5t-71 206.5q9 126 84 476q-29 5 -29 29t12 42l45 54l41 174q-435 -23 -723 -101q-63 -253 -132.5 -496.5t-129.5 -482.5q-21 -41 -57 -41q-31 0 -35 41q57 232 124 469t130 482q-257 -85 -416 -209q-9 -7 -25 -19q-67 -50 -67 -85zM1169 858
q-18 -89 -39 -186.5t-26 -128t-24 -95t-19 -157.5t48 -152t101 -59q152 0 288 162.5t136 304.5t-87 255q-41 54 -99.5 88t-122 34t-97 -18.5t-59.5 -47.5z" />
    <glyph glyph-name="uni040B" unicode="&#x40b;" horiz-adv-x="958" 
d="M193 31q0 -47 -76 -47q-27 0 -33 24q-1 2 -1 6q0 46 75.5 389.5t101 464t51.5 241.5t50 237q-140 3 -176 13.5t-55 19.5q-13 14 -13 32t18.5 34t40 16t46.5 -7.5t51 -7.5l61 2q15 -1 26 -1h22q56 274 89 472l8 27q9 30 36 30q51 0 65 -51q-25 -127 -54 -264.5t-45 -216.5
h17q59 0 199 8q33 -11 33 -35q0 -45 -54 -59q-42 -12 -170 -12h-45q-24 -113 -69 -329.5t-91 -422.5q209 430 395 430q76 0 113 -59.5t37 -131.5t-26 -201l-34 -172q-56 -283 -56 -338l3 -78q0 -26 -17.5 -42t-46.5 -16t-42.5 20.5t-13.5 39.5t3 34l119 665q6 32 6 74
q0 103 -57 103q-108 0 -294 -323q-105 -183 -129 -253.5t-47 -162t-23 -117.5z" />
    <glyph glyph-name="uni040C" unicode="&#x40c;" horiz-adv-x="1266" 
d="M344 813q-42 -42 -70 -51h-10q-26 -115 -50.5 -227.5t-44 -202t-34 -151.5t-20.5 -130q-3 -25 -22 -41t-38 -16q-31 0 -35 43q7 72 22.5 138t111 534t264.5 1212q8 22 26 35.5t35 13.5q31 0 31 -37v-12q-88 -454 -219 -1032q193 226 386.5 432.5t308.5 334t226 267.5
q20 16 41 16q35 0 35 -34q0 -21 -16 -41q-149 -191 -322 -374t-313.5 -332t-214.5 -251l6 -14q21 -280 158 -536q96 -180 230 -257q69 -39 142.5 -39t102.5 15q50 25 90 86q20 16 38 16q40 0 40 -37q0 -31 -83 -100q-27 -23 -63.5 -41t-126.5 -18q-172 0 -312 144
q-117 119 -192 306.5t-108 380.5zM250 836q0 2 1 3l-3 -3h2zM845 2039q-46 0 -46 47q0 15 21.5 45t47 75.5t48.5 93t45 94.5t45 92q23 31 51 31q37 0 37 -35q0 -16 -15.5 -45t-37.5 -76.5t-61 -127.5t-89 -144q-3 -20 -18 -35t-28 -15z" />
    <glyph glyph-name="uni040E" unicode="&#x40e;" horiz-adv-x="1241" 
d="M580 670q-220 0 -220 387q0 196 134 715q21 83 43 159q11 20 31.5 34.5t37.5 14.5q27 0 27 -34q-121 -498 -144.5 -651.5t-23.5 -262t40.5 -188.5t112.5 -80t188.5 79t180.5 165q140 958 356 958q62 0 62 -111.5t-77 -378t-238 -470.5q-6 -40 -12.5 -82t-14.5 -97
q-75 -518 -369 -745q-136 -105 -323.5 -105t-332.5 169q-67 79 -125 166.5t-76.5 110.5t-18.5 26v11q0 20 21 42t38 22t33 -10q74 -163 188 -285q143 -153 305 -153q182 8 332 177t207 439q5 22 11 69.5t16 112.5q-234 -204 -389 -204zM1305 1831q-128 -266 -187 -637
q64 121 95 226q77 262 92 411z" />
    <glyph glyph-name="uni040F" unicode="&#x40f;" horiz-adv-x="1384" 
d="M334 82l182 -3q0 1 2 1l35 8q16 0 27 -12q96 -4 199.5 -4t125 1.5t32.5 4t16.5 4.5t15.5 4q3 28 5.5 56.5t8.5 56.5l49 231q238 1110 311 1499q22 41 58 41q31 0 35 -41q-45 -213 -141 -692t-149.5 -715.5t-65 -292.5t-13 -86.5t-6.5 -58.5q51 -8 51 -37q0 -34 -38 -51
q-12 -5 -25 -6q-26 4 -41 4l-17 -2q-8 0 -16 4h-19q-19 0 -27 -2l-20 -5q-28 -7 -110 -7h-209q-6 -107 -43.5 -254t-44.5 -181q-23 -41 -58 -41q-30 0 -34 41q5 21 14 53q71 267 74 382q-127 0 -408 18q-23 -39 -52 -39t-38 35v10q-43 7 -43 37q0 19 17 35.5t38 21.5h2
q13 63 62.5 224t92.5 386t62.5 318t28.5 137.5t20.5 100.5t24.5 121t25.5 131t38.5 198.5t34 214.5q6 13 11 26.5t14.5 30.5t36.5 17q39 0 39 -37v-4l2 2q-63 -262 -142.5 -700t-113 -606.5t-58.5 -253.5t-49.5 -160t-38.5 -154q137 -10 230 -10z" />
    <glyph glyph-name="uni0410" unicode="&#x410;" 
d="M211 653q79 -10 266 -18q173 261 443 769q169 318 219 548q8 21 26 35t35 14q26 0 29 -31q16 -16 14.5 -36t-12.5 -31q-23 -81 -32.5 -169.5t-39 -327.5t-29.5 -402t25 -396q123 -13 133 -27t10 -31t-18.5 -34.5t-40 -16t-37.5 4t-33 4.5v-10q0 -6 3.5 -31t4 -69t4 -78.5
t11.5 -71.5t23.5 -106.5t15.5 -91.5t-16.5 -39t-37 -17t-35.5 29.5t-25 75.5t-16.5 103t-11.5 112.5t-8.5 103t-7.5 74.5l-6 28q-136 14 -275 16t-278 5q-264 -400 -498 -506q-78 -39 -122 -39q-54 0 -54 51q0 26 18 45t37.5 19t30.5 -17l2 2q214 83 404 336q29 40 47 63
t35 48q-155 8 -232 16q-28 11 -28 33t17.5 40t39.5 21zM1057 618q-17 134 -17 363.5t43 556.5q-121 -251 -268.5 -508.5t-236.5 -396.5q120 -2 240.5 -3.5t238.5 -11.5z" />
    <glyph glyph-name="uni0411" unicode="&#x411;" horiz-adv-x="1176" 
d="M-308 208q-40 57 -40 128.5t48 71.5q31 0 55 -78.5t65 -114.5q103 -89 284 -123q96 425 191 891h-29q-19 -25 -39 -25q-41 0 -41 41q0 71 129 82q70 353 148 725q-8 13 -8 27.5t4 30.5q-75 -11 -146 -11q-138 0 -141 52q0 55 60 67q16 4 34 6q27 -8 33 -24h25q82 0 165 6
q29 59 70 59q33 0 33 -49v-2q142 13 281 28t222 15q482 0 482 -69q0 -22 -19 -40t-45 -18q-175 31 -345 31t-310 -12.5t-287 -24.5q-42 -198 -81.5 -399t-79.5 -400q281 -18 447.5 -160.5t166.5 -350t-126 -346.5q-163 -180 -466 -228q-89 -14 -148.5 -14t-111.5 6
q-2 -2 -4.5 -15.5t-21 -22.5t-33.5 -9q-35 0 -35 32q0 11 4 23v6q-284 59 -390 208zM195 78q36 -4 97 -4q129 0 277.5 51t254.5 159t106 269q0 274 -299 380q-102 36 -242 46q-131 -647 -194 -901z" />
    <glyph glyph-name="uni0412" unicode="&#x412;" horiz-adv-x="1053" 
d="M6 -82q4 32 14 82l-58 12q-124 25 -128 66q-1 5 -1 16.5t11.5 25t22 13.5t21.5 -3q14 -5 47 -20.5t106 -15.5l53 223q31 158 69.5 317.5t76.5 323.5l-62 3q-31 0 -31 34q0 49 111 49q45 191 80 415t90 399q-37 -16 -68 -43q-18 -37 -53 -37q-9 0 -22 8.5t-13 32.5
q0 47 60 83.5t137 51.5q13 21 31.5 21t31.5 -17q190 -6 305 -130.5t115 -332.5q0 -170 -125.5 -314t-281.5 -165q174 -11 305 -152.5t131 -293.5q0 -292 -223.5 -439t-605.5 -147l-43 2q-7 -29 -7 -49q-5 -26 -22.5 -43t-33.5 -17q-35 0 -40 41zM127 80q27 -4 80 -4
q327 0 503.5 131t176.5 350q0 153 -140 273t-311 120q-44 0 -108 4q-97 -421 -121.5 -536t-31.5 -141.5t-15 -58.5l-17 -68q-9 -36 -16 -70zM757.5 1772q-94.5 94 -245.5 98q-50 -165 -96.5 -446.5t-67.5 -376.5q211 14 357.5 138.5t146.5 308.5t-94.5 278z" />
    <glyph glyph-name="uni0413" unicode="&#x413;" horiz-adv-x="1004" 
d="M293 1976l106 -16h27q27 59 70 59q32 0 32 -49q-2 -4 -2 -10q25 1 39 2.5t25 2.5t35 4t159 3l258 8q168 0 168 -38q0 -22 -18.5 -40t-44.5 -18q-42 8 -103 8l-270 -16q-99 0 -121.5 4t-40.5 4t-104 -6q-54 -261 -138 -715t-129.5 -690.5t-105.5 -472.5
q-5 -20 -23.5 -29.5t-33.5 -9.5q-35 0 -35 33q0 10 48 211t151.5 770t156.5 829q-8 16 -8 26t1 14.5t1 10.5q-11 -2 -25 -2h-28q-116 0 -121 52q0 57 43 66q13 3 31 5z" />
    <glyph glyph-name="uni0414" unicode="&#x414;" horiz-adv-x="1921" 
d="M463 492q142 543 200 820.5t121 585.5q-431 -16 -636 -289q-61 -82 -105 -175q-19 -41 -57 -41q-31 0 -35 41q82 169 154 252t137 132q208 159 559 171l6 28q5 20 23.5 34.5t32.5 14.5q29 0 38 -34l-6 -43q322 -9 559 -183q202 -149 307 -370.5t105 -411.5
q0 -254 -96 -490q-156 -384 -466 -509q-107 -43 -231 -43t-279 160q-120 122 -172 166t-102 69q-15 -65 -37.5 -170t-46 -141t-60 -61t-103.5 -25q-115 0 -170.5 71t-55.5 159.5t31.5 144.5t79 89.5t102 47.5t100 14t103.5 -14zM879 1898q-42 -238 -156.5 -691t-181.5 -742
q95 -44 207 -149q47 -44 90.5 -86.5t85.5 -77.5q95 -76 184 -76q177 0 329.5 144t239 365.5t86.5 445t-113.5 422t-315 317t-455.5 128.5zM389 412q-252 0 -252 -189q0 -92 67 -127q26 -14 56 -14t59 16q47 24 62 78l59 230q-36 6 -51 6z" />
    <glyph glyph-name="uni0415" unicode="&#x415;" horiz-adv-x="1085" 
d="M397 1188q-159 163 -159 418q0 78 39 154.5t97 127.5q114 99 247 99q258 0 391 -199q44 -64 80 -148q-4 -21 -22 -39t-39 -18t-34 29q-66 149 -145 213.5t-223 64.5t-218.5 -88t-74.5 -206q0 -230 180 -361q8 2 18 2h21q90 0 155 -25q121 -46 121 -100q0 -46 -50 -70
q-14 -6 -43.5 -6t-114 29.5t-142.5 60.5q-151 -44 -272 -230.5t-121 -382.5q0 -445 369 -445q209 0 361.5 127.5t176.5 330.5q23 33 55.5 33t32.5 -49q-91 -375 -385 -492q-104 -41 -234 -41q-240 0 -366 161q-110 139 -110 350.5t113.5 408t295.5 291.5z" />
    <glyph glyph-name="uni0416" unicode="&#x416;" horiz-adv-x="2109" 
d="M1186 813q-42 -42 -70 -51h-10q-63 -277 -88.5 -398t-40 -183t-19.5 -108.5t-23.5 -62.5t-37.5 -16q-31 0 -35 43q6 72 21.5 138t38 178.5t88.5 422.5q-25 22 -43 55q-135 -236 -215 -345q-168 -233 -334 -354q-207 -150 -430 -150q-85 0 -124.5 22.5t-76.5 97.5
q-6 10 -6 27.5t18 33t39.5 15.5t32.5 -16q19 -87 91 -98q23 -3 78.5 -3t141.5 39q238 110 482 423q151 193 239 370q5 6 9.5 11.5t9.5 8.5q-11 20 -18 39t-119 247q-314 640 -314 690q0 18 17 34t38.5 16t32.5 -16q110 -302 210 -508.5t163.5 -330t97.5 -210.5
q116 552 230 1047q8 22 26 35.5t35 13.5q31 0 31 -49q-73 -373 -219 -1032q193 226 386.5 432.5t308.5 334t226 267.5q20 16 41 16q35 0 35 -34q0 -21 -16 -41q-159 -201 -327 -379t-308.5 -327t-214.5 -251l6 -14q21 -278 158 -536q94 -179 229 -257q69 -39 142.5 -39
t112.5 20t81 81q20 16 38 16q40 0 40 -34.5t-81 -102.5q-28 -23 -64.5 -41t-127.5 -18q-173 0 -313 144q-119 121 -192.5 308.5t-106.5 378.5z" />
    <glyph glyph-name="uni0417" unicode="&#x417;" horiz-adv-x="1145" 
d="M434 1784q-35 0 -35 39t110 104.5t249 65.5t214 -85.5t75 -226.5q0 -232 -225 -419q-65 -54 -132 -101q190 -33 281.5 -176.5t91.5 -370.5q0 -276 -178 -455t-516 -179q-261 0 -452 203.5t-257 473.5q0 25 17 45.5t38 20.5t35 -23q40 -241 226.5 -434.5t405 -193.5
t389.5 124q198 142 198 404q0 316 -197 448q-70 47 -170 56q-150 -94 -237 -94q-26 0 -45 8t-19 42q0 65 80 92q49 16 174 19q401 245 401 508q0 98 -60.5 156.5t-149.5 58.5q-158 0 -275 -98q-21 -12 -37 -12z" />
    <glyph glyph-name="uni0418" unicode="&#x418;" horiz-adv-x="1550" 
d="M53 -8l-12 -6q-34 0 -44.5 12.5t-10.5 34.5q79 259 166 730q201 1086 226 1147q5 13 5 27q6 20 23.5 35t35.5 15q25 0 35 -35q0 -88 -51 -268q-8 -30 -89 -450.5t-228 -1053.5q151 185 299 357.5t292 346.5q332 401 553 746q16 25 35 63l40 80q61 119 100 177.5
t73.5 58.5t34.5 -37q0 -12 -6 -24h2q-2 -2 -6.5 -14.5t-24 -45t-35.5 -86.5q-63 -160 -122 -307q-205 -511 -205 -946q0 -333 47 -465q86 59 206 232q29 42 64 83q19 17 41 17q37 0 37 -33q0 -18 -8 -31q-24 -28 -50.5 -64t-79.5 -104q-136 -178 -237 -204q-104 19 -107 468
q-1 57 -1 196t39.5 337.5t130.5 423.5l20 55q-309 -455 -871 -1099q-155 -177 -317 -369z" />
    <glyph glyph-name="uni0419" unicode="&#x419;" horiz-adv-x="1550" 
d="M53 -8l-12 -6q-34 0 -44.5 12.5t-10.5 34.5q79 259 166 730q201 1086 226 1147q5 13 5 27q6 20 23.5 35t35.5 15q25 0 35 -35q0 -88 -51 -268q-8 -30 -89 -450.5t-228 -1053.5q151 185 299 357.5t292 346.5q332 401 553 746q16 25 35 63l40 80q61 119 100 177.5
t73.5 58.5t34.5 -37q0 -12 -6 -24h2q-2 -2 -6.5 -14.5t-24 -45t-35.5 -86.5q-63 -160 -122 -307q-205 -511 -205 -946q0 -333 47 -465q86 59 206 232q29 42 64 83q19 17 41 17q37 0 37 -33q0 -18 -8 -31q-24 -28 -50.5 -64t-79.5 -104q-136 -178 -237 -204q-104 19 -107 468
q-1 57 -1 196t39.5 337.5t130.5 423.5l20 55q-309 -455 -871 -1099q-155 -177 -317 -369zM1376 2503q37 0 37 -33q0 -18 -8 -31q-228 -309 -451 -309q-116 0 -181.5 81.5t-65.5 209.5q0 26 17.5 44.5t39 18.5t30.5 -20.5t22 -110.5q19 -131 126 -131q132 0 240 92
q70 58 153 172q19 17 41 17z" />
    <glyph glyph-name="uni041A" unicode="&#x41a;" horiz-adv-x="1255" 
d="M1241 1980q35 0 35 -34q0 -21 -16 -41q-154 -184 -465.5 -535t-415.5 -473q28 -287 168 -537q98 -174 235 -248q70 -38 144 -38t114 15t78 73q20 16 38 16q40 0 40 -36t-61 -89t-113 -62t-120.5 -9t-148.5 39.5t-145 106.5q-119 120 -198.5 311t-112.5 382
q-22 -25 -42 -43t-34 -41q-104 -469 -141 -698q-5 -25 -23 -41t-35 -16q-32 0 -36 43q92 509 229.5 1100t190.5 825q8 21 26 35t32 14q34 0 34 -37v-12q-50 -257 -110.5 -518.5t-119.5 -522.5q114 129 430 481t502 574q20 16 41 16z" />
    <glyph glyph-name="uni041B" unicode="&#x41b;" horiz-adv-x="940" 
d="M776 1939q7 23 29 39.5t39 16.5q25 0 28 -35q-73 -480 -73 -974.5t55 -934.5q0 -43 -42 -65q-12 -6 -24 -6q-24 0 -30 28q-56 454 -56 839.5t29 702.5q-250 -626 -550 -1135q-163 -276 -283 -411q-26 -27 -65 -27t-54 18.5t-15 39.5t17 39t35.5 18t29.5 -8q49 52 125 183
t151.5 247t211.5 381q293 571 434 1030q2 3 3.5 7t4.5 7z" />
    <glyph glyph-name="uni041C" unicode="&#x41c;" horiz-adv-x="1753" 
d="M1567 1933q27 49 59.5 49t32.5 -30v-6q-61 -1017 -68 -1870q13 -26 -1 -52q-24 -49 -56 -49q-39 0 -42 69q-1 20 -1 127t5.5 304t13 395.5t15.5 396t13 390.5q-99 -221 -343.5 -686.5t-328.5 -634.5q-23 -43 -52 -43t-40 29q-52 240 -158 715t-145 669
q-67 -340 -212 -938t-179 -750q-20 -41 -57 -41q-31 0 -35 41q65 357 221 1004.5t215 908.5q6 20 23.5 34.5t32.5 14.5q29 0 38 -34q85 -368 171.5 -785t141.5 -651q137 236 254 469t230.5 460t251.5 494z" />
    <glyph glyph-name="uni041D" unicode="&#x41d;" horiz-adv-x="1460" 
d="M-211 608l4 -18q0 -23 -16.5 -40.5t-36.5 -17.5q-43 0 -43 60q0 121 242 266q83 49 134.5 68t106 43t93 36.5t49.5 16.5q43 180 66 374t35.5 308.5t27.5 228.5q6 49 59 49q22 0 29.5 -8t5.5 -26q-24 -287 -123 -899q308 79 780 100q67 508 81 565q44 178 48 240
q6 20 23.5 34.5t36.5 14.5q25 0 34 -35q-3 -55 -19 -124l-25 -108q-18 -78 -43 -267.5t-42 -317.5l467 14q35 -9 35 -35q0 -18 -14.5 -35.5t-34.5 -23.5q-116 -5 -232 -7t-235 -5q-18 -146 -53 -322t-66.5 -349.5t-38.5 -352.5q-3 -25 -21.5 -41.5t-37.5 -16.5q-31 0 -35 43
q7 185 39 360.5t53 281t39 212.5l29 181q-475 -19 -793 -105q-62 -251 -132.5 -496t-129.5 -483q-21 -41 -57 -41q-31 0 -35 41q56 230 124 468.5t130 482.5q-262 -87 -416 -209q-8 -6 -23 -17q-69 -51 -69 -84v-4z" />
    <glyph glyph-name="uni041E" unicode="&#x41e;" horiz-adv-x="1270" 
d="M426 -45q-365 0 -365 649q0 439 169 810q183 405 477 405q114 0 215 -82q18 -20 18 -41q0 -49 -33 -49q-8 0 -47 21q-91 50 -185 50q-123 0 -246 -160.5t-199 -412.5t-76 -498q0 -475 176 -575q42 -23 113 -23t149 35q215 99 361 418q92 201 140 428t48 439.5t-79 374.5
q-57 114 -148 140q-46 12 -87.5 20t-70.5 18t-29 30q0 38 51 45q401 0 450 -525q9 -89 9 -192q0 -220 -59.5 -454.5t-169 -433.5t-259 -318t-323.5 -119z" />
    <glyph glyph-name="uni041F" unicode="&#x41f;" horiz-adv-x="1567" 
d="M1454 1901l-739 -11h-123q-4 -8 -8 -10q-5 -29 -6.5 -58.5t-6.5 -58.5l-360 -1730q-19 -41 -57 -41q-31 0 -35 41q59 340 141 712l129 585q94 428 97 479.5t10 82.5q-159 3 -316 21q-39 10 -39 35q0 20 19 37.5t45 19.5q248 -25 441.5 -25t290 2t194.5 4t192 4.5t174 4.5
q9 6 19 6t18 -4h80q41 0 118 -7.5t148 -13.5q31 -11 31 -32t-17 -38t-39 -22l-240 19h-69q-80 -269 -145 -588t-81 -396.5t-25.5 -122t-21 -100.5t-24 -121t-52.5 -269t-46 -275q-6 -13 -11 -27q-15 -47 -52 -47t-37 37v4l-2 -2q54 237 98 477t89 479q111 591 218 949z" />
    <glyph glyph-name="uni0420" unicode="&#x420;" horiz-adv-x="1096" 
d="M268 809q-174 56 -174 100q0 25 17 37t36 12t37 -5t36 -12t36 -15.5t33 -14.5l205 961q-91 -28 -134 -105q-18 -24 -47 -24q-37 0 -37 35q0 7 5 22q72 137 243 170q22 41 51.5 41t34.5 -31h8q229 0 359.5 -152.5t130.5 -340.5q0 -316 -161 -507q-174 -208 -490 -208
q-49 0 -103 14q-23 -115 -72.5 -344t-78.5 -395q-5 -25 -23 -41t-34 -16q-33 0 -37 43q34 197 86.5 437.5t72.5 338.5zM375 881q48 -13 145.5 -13t193 46t164.5 124q144 166 144 400q0 182 -116 316t-316 134z" />
    <glyph glyph-name="uni0421" unicode="&#x421;" horiz-adv-x="1098" 
d="M887 256q35 0 35 -37q0 -28 -31 -51q-47 -32 -95 -68q-174 -130 -320 -130q-82 0 -156 42q-157 88 -225 317q-34 115 -34 219q0 171 54.5 407.5t156.5 477t244 401.5t302 161t269 -133.5t109 -272.5q-3 -21 -21 -39t-36 -18t-27 12q-13 18 -18 66q-16 127 -91 206.5
t-187 79.5t-239 -151q-169 -200 -290 -566.5t-121 -579t72 -355.5q88 -174 254 -174q122 0 280 114q44 32 71 52t44 20z" />
    <glyph glyph-name="uni0422" unicode="&#x422;" horiz-adv-x="1186" 
d="M717 1862q-234 6 -322.5 6t-191.5 -6q-43 4 -43 34q0 57 104 64q29 2 58 2l419 -8q29 86 78 86q29 0 35 -35l4 -41l-2 -10q57 2 101.5 5t83 5.5t115.5 8t170 5.5h74q13 0 27 2q35 -9 35 -34q0 -62 -100 -62q-130 0 -278 -10t-269 -12q-34 -169 -82.5 -380.5
t-144.5 -696.5t-148 -805q-5 -25 -22.5 -41.5t-33.5 -16.5q-34 0 -38 43q61 506 270 1396q30 130 46 190t21 92t10.5 68.5t11 75t12.5 75.5z" />
    <glyph glyph-name="uni0423" unicode="&#x423;" horiz-adv-x="1241" 
d="M580 670q-220 0 -220 387q0 196 134 715q21 83 43 159q11 20 31.5 34.5t37.5 14.5q27 0 27 -34q-121 -498 -144.5 -651.5t-23.5 -262t40.5 -188.5t112.5 -80t188.5 79t180.5 165q140 958 356 958q62 0 62 -111.5t-77 -378t-238 -470.5q-6 -40 -12.5 -82t-14.5 -97
q-75 -518 -369 -745q-136 -105 -323.5 -105t-332.5 169q-67 79 -125 166.5t-76.5 110.5t-18.5 26v11q0 20 21 42t38 22t33 -10q74 -163 188 -285q143 -153 305 -153q182 8 332 177t207 439q5 22 11 69.5t16 112.5q-234 -204 -389 -204zM1305 1831q-128 -266 -187 -637
q64 121 95 226q77 262 92 411z" />
    <glyph glyph-name="uni0424" unicode="&#x424;" horiz-adv-x="2650" 
d="M1040 -567q-26 0 -26 24t96 506q-123 -8 -194 -8q-141 0 -292 56q-431 160 -538 537q-25 86 -25 190q0 212 95.5 436.5t261.5 413.5q166 187 370 296t410 109q86 0 243 -89q47 -26 87 -57q63 274 82 398q-4 7 -4 26t22 37.5t44 18.5q38 0 38 -34q0 -12 -8 -40
q0 -142 -66 -406q274 148 518 148q314 0 420 -337q43 -134 43 -307q0 -343 -189.5 -639t-512.5 -489.5t-711 -247.5l-96 -487q-8 -25 -29.5 -40t-38.5 -15zM1495 1726q-114 93 -261 145q-42 15 -67 15q-314 0 -573 -248q-228 -218 -345 -531q-71 -191 -71 -353
q0 -290 206 -497.5t579 -207.5q99 0 163 8q83 440 177 883zM1618 1751q21 -32 21 -63t-38 -55q-11 -7 -22 -9q-97 -340 -149.5 -593t-106.5 -490.5t-100 -472.5q356 48 654.5 222t474 444.5t175.5 596.5q0 249 -111.5 408t-335 159t-462.5 -147z" />
    <glyph glyph-name="uni0425" unicode="&#x425;" horiz-adv-x="1286" 
d="M395 1880q-28 0 -28 35t26.5 61.5t40.5 26.5h18q4 0 13 -3.5t32.5 -71.5t54.5 -179.5t69 -257.5t81 -307q324 459 550 710q69 76 90 82t35 6t25 -9t11 -24t-27 -49t-162.5 -192t-486.5 -653q215 -783 346 -1041q0 -29 -20.5 -50t-43.5 -21t-32 14q-2 0 -2 -2
q-12 48 -22 95.5t-25 92.5q-125 279 -276 803q-158 -230 -320.5 -466.5t-345.5 -479.5q-17 -27 -46 -27q-65 0 -65 50l2 10q211 268 559 779q90 132 181 263q-56 196 -108.5 388t-112.5 378l-9 39h-2z" />
    <glyph glyph-name="uni0426" unicode="&#x426;" horiz-adv-x="1268" 
d="M768 -150q-53 0 -53 182t100 582q-112 -267 -172 -371.5t-105 -160.5q-99 -127 -186 -127q-51 0 -92 38q-113 106 -113 370.5t38.5 522t81 473t49.5 253.5q57 332 120 385q23 16 45 16t27 -22l4 -13q0 -5 -4 -14l-10 -20q-16 -30 -19 -39l-76 -338q-155 -690 -155 -1186
q0 -328 108 -328q98 0 256 279t262 640t128 460q104 431 123 460q30 47 94 47q20 0 20 -34.5t-21 -104t-46.5 -159.5t-51.5 -185t-51.5 -192.5t-117.5 -447.5t-114 -479t-22 -239v-72q0 -14 6 -38q89 114 191.5 114t202.5 -115q141 -162 141 -421q0 -130 -41.5 -257.5
t-109.5 -220.5q-125 -172 -315.5 -250.5t-350.5 -78.5t-270 32t-165 66q-129 79 -129 210.5t187 222.5q120 60 452 147q41 0 41 -25q0 -37 -47 -63q-45 -18 -101.5 -34.5t-157.5 -46.5t-172 -72q-97 -59 -97 -136t82 -126q125 -75 364 -75q299 0 506 179q139 120 194 305
q27 93 27 171q0 273 -131 416q-64 70 -140.5 70t-117.5 -75q-26 -47 -48 -61t-48 -14z" />
    <glyph glyph-name="uni0427" unicode="&#x427;" horiz-adv-x="936" 
d="M307 561q-217 0 -217 285q0 400 162 842q48 131 102 266q31 33 55 33t28.5 -10.5t4.5 -28.5l-2 -11q-130 -328 -172 -486q-82 -310 -82 -591q0 -154 62 -197q24 -16 65 -16t96 34.5t109 97.5q148 171 230 488q17 66 31 127q74 324 122.5 434t57 124t19.5 24.5t35.5 10.5
t24.5 -21t-64 -225q-112 -363 -356 -1557l-24 -123q-19 -85 -78 -129q-19 -14 -38 -14t-40.5 16t-21.5 36.5t22 38.5t45 18q15 64 43 184q127 534 170 752q-75 -196 -187 -299t-202 -103z" />
    <glyph glyph-name="uni0428" unicode="&#x428;" horiz-adv-x="1702" 
d="M1337 -51q-26 0 -26 31v6q0 3 6 30.5t46.5 274t49.5 352.5q-117 -386 -231 -539q-93 -124 -187 -124t-148 118t-54 282t20 317t27 204q-83 -326 -189 -556t-215 -319q-58 -46 -110 -46q-90 0 -131 77t-54.5 179.5t-13.5 311.5q0 403 190 1379q10 20 30.5 34.5t35.5 14.5
q31 0 31 -34q-187 -966 -187 -1498q0 -364 88 -364q144 0 375 579q181 452 291 920l78 340q9 20 30 34.5t39 14.5q23 0 23 -37q0 -12 -4 -30l-31 -129q-109 -453 -147 -652q-78 -409 -78 -658t62 -345q24 -37 65.5 -37t83 40.5t80.5 111.5t75.5 168t71 210t67 237
t63.5 249.5t60 247.5t75 300t72.5 242t42.5 73t43.5 9t27.5 -35q-160 -523 -297 -1363q-14 -88 -35 -279.5t-39 -284.5q-9 -25 -31 -41t-41 -16z" />
    <glyph glyph-name="uni0429" unicode="&#x429;" horiz-adv-x="1964" 
d="M1174 -74q-254 0 -254 525q0 249 49 563q-166 -423 -383 -770q-9 -15 -26 -44q-160 -278 -304 -278q-82 0 -128 113t-46 277.5t61 478.5q12 64 31.5 138t54.5 209.5t84.5 342.5t108.5 411q11 20 32 35t35 15q29 0 29 -35q-35 -138 -71.5 -276t-72.5 -276
q-192 -748 -192 -1083q0 -249 105 -249q51 0 191 213q68 105 91 135q303 538 407 923q38 141 82 318t75 276q11 20 31.5 34.5t34.5 14.5q28 0 32 -30v-3q0 -18 -31.5 -172t-74.5 -378q-107 -557 -107 -898.5t92 -433.5q20 -20 49.5 -20t60.5 16.5t60 42.5t57 59.5t53 67.5
t47.5 65t41.5 54q121 146 243 469q58 243 108 408t97.5 324t83.5 329q13 26 55 47q4 2 8 2h7q12 0 16 -6t8 -10l2 -10l2 -9q-99 -473 -169 -704t-121 -363q-47 -190 -86.5 -377.5t-81.5 -377.5q30 6 83.5 6t123 -36.5t122.5 -95.5q117 -128 117 -282.5t-113 -283.5
q-151 -174 -421 -229q-80 -17 -138 -17q-344 0 -583 89q-213 83 -216 218q0 32 -1.5 59t21 48.5t42.5 21.5t26.5 -14t8.5 -33.5t3 -40.5t9 -35q82 -158 453 -204q108 -13 236.5 -13t260 45t223 135t91.5 211t-82.5 219.5t-190.5 143.5q-15 6 -37 6t-110 -23q-37 4 -37 31
q13 79 94 446q-91 -160 -227.5 -317.5t-234.5 -157.5z" />
    <glyph glyph-name="uni042A" unicode="&#x42a;" horiz-adv-x="1012" 
d="M141 1282l11 248v12q0 137 -43 227q0 52 39 71q13 7 30 7l15 -2q111 -74 317 -119l33 -8q157 281 364 281q79 0 133 -48t54 -111q0 -238 -396 -238q-61 0 -131 6q-194 -499 -227 -867q111 94 239 123q35 8 58 8q174 0 255 -98q62 -77 62 -199.5t-68 -260t-188.5 -233
t-263.5 -95.5q-117 0 -169 115.5t-52 292t39 407.5q83 487 240 819q-134 23 -254 76q18 -102 18 -198t-14 -187q-10 -25 -31.5 -41.5t-40.5 -16.5q-29 0 -29 29zM457.5 720.5q-89.5 -53.5 -135.5 -128.5q-15 -119 -15 -210q0 -296 162 -296q151 0 267 147t116 295
q0 103 -58 174.5t-152.5 71.5t-184 -53.5zM997 1798q0 70 -71 96q-26 9 -71 9t-110.5 -57.5t-123.5 -141.5q51 -17 103 -17t104 14q169 44 169 97z" />
    <glyph glyph-name="uni042B" unicode="&#x42b;" horiz-adv-x="1667" 
d="M408 1905l-2 8q0 50 39 71q12 7 26 7q37 0 37 -44.5t-9 -87.5t-21 -84t-24.5 -77.5t-48 -154t-99.5 -382.5t-91 -406.5t-51.5 -257t-24.5 -236t49.5 -165.5t131.5 -45q148 0 269 98.5t194 247.5t73 262q0 214 -104 326q-312 24 -312 107q0 40 55 61t117 21q121 0 211 -95
q55 -6 115 -6q294 0 463 182q21 84 43 165t35 132.5t28 111t32.5 104t72.5 155.5q9 20 28 34.5t41 14.5t29 -28l4 2l-4 -9q2 -5 2 -10v-52q0 -47 -14 -137q-45 -291 -219 -497q-59 -257 -89 -463t-45.5 -302.5t-15.5 -224.5t14 -176t57 -48t78 23t89.5 92t91.5 69t37 -25.5
t-27 -50.5q-29 -32 -56 -68q-101 -135 -199 -135q-121 0 -162 106q-27 70 -27 193t13 228.5t32 206t40.5 192t37.5 166.5l24 115q-100 -80 -201 -120t-235 -40h-45q67 -130 67 -282.5t-96 -327.5t-249 -293.5t-310 -118.5q-210 0 -251 152q-13 46 -13 116.5t36.5 283
t106 521t114 454t50 164.5t34 113.5t28.5 143.5zM1591 1647q-41 -128 -53 -174q32 73 53 174z" />
    <glyph glyph-name="uni042C" unicode="&#x42c;" horiz-adv-x="907" 
d="M123 752q-29 4 -29 36q0 17 12 35l46 54l53 229q22 100 76.5 352t128.5 477q8 22 26 36t35 14q31 0 31 -50q-92 -291 -205 -829l-27 -119q54 33 138 33t160 -41t128 -108q109 -138 109 -324q0 -114 -81 -247q-129 -212 -323 -288q-65 -26 -119 -26q-100 0 -171.5 84
t-71.5 206q9 130 84 476zM242 858q-9 -45 -19 -90.5t-26 -119.5t-21 -104.5t-24 -95t-19 -157.5t47.5 -152t101.5 -59q102 0 201 78t161.5 188.5t62.5 190t-23 146t-64.5 120t-99.5 87.5t-122 34t-97.5 -18.5t-58.5 -47.5z" />
    <glyph glyph-name="uni042D" unicode="&#x42d;" horiz-adv-x="1182" 
d="M83 965q-36 0 -36 41q0 19 25 41q43 31 75 56.5t79.5 53t115.5 27.5t132.5 -24t172.5 -98q179 -122 275 -122q38 0 79 25q52 254 52 483q0 325 -108 436q-40 41 -100 41t-128 -34.5t-164 -96.5q-12 -4 -23 -4q-34 0 -34 37q0 20 57 71t141 90.5t151 39.5q206 0 275 -298
q29 -125 29 -239q0 -265 -39 -483q27 -4 27 -34.5t-47 -66.5q-83 -359 -283 -682q-65 -104 -179 -173.5t-198 -69.5q-156 0 -276 82t-174 219q0 24 16.5 44.5t37.5 20.5t36 -22q41 -106 137.5 -179t208.5 -73q195 0 366 286q126 213 195 496q-29 -6 -70 -6t-91 18
q-81 28 -186 100q-171 119 -261.5 119t-128 -23t-85 -61t-72.5 -38z" />
    <glyph glyph-name="uni042E" unicode="&#x42e;" horiz-adv-x="1796" 
d="M1681 1845q82 -103 82 -345q0 -106 -27 -270q-165 -1007 -547 -1208q-81 -42 -187 -42t-190.5 58t-139.5 156q-111 194 -111 492q0 169 37 338q-41 -5 -148.5 -27t-189.5 -24q-104 -503 -174 -916q2 -4 2 -8l-6 -14v-6h-2q-11 -20 -31 -31.5t-37 -11.5q-26 0 -26 30
q28 185 101.5 558t79.5 399.5t13 58.5t41 194.5t61 300.5t49 227.5t70 191.5q13 21 34 35t38 14q23 0 23 -27v-10q0 -6 -11 -27.5t-23.5 -53.5t-21.5 -64.5t-16 -67.5t-50.5 -232.5t-92.5 -443.5q35 9 75 13t74 8.5t86.5 13t106.5 14.5q99 363 321.5 620t501.5 257
q147 0 240 -103q4 -10 4 -21.5t-9 -25.5zM1536 1868q-59 33 -136 33q-150 0 -297 -131t-260 -337q-184 -336 -184 -692q0 -274 86 -455q97 -204 273 -204q279 0 466 523q109 304 162 701q17 124 17 193.5t-10.5 118t-26.5 80t-34.5 50t-34.5 31.5t-26.5 24.5t-10.5 30
t16 34.5z" />
    <glyph glyph-name="uni042F" unicode="&#x42f;" horiz-adv-x="1038" 
d="M606 -31q-28 5 -28 35l18 99q11 45 20 85l164 717q-64 -46 -114 -73q-157 -124 -262 -222t-216 -227.5t-216.5 -262.5t-215.5 -258q-258 -291 -484 -430q-294 -180 -630 -180q-215 0 -419.5 113.5t-325.5 292.5v8q0 28 19 49t41 21t32 -8q110 -169 288.5 -275t360 -106
t328.5 51t277.5 136.5t247.5 198t224.5 235t208.5 247.5t227.5 265t327.5 302q-118 10 -230 128.5t-112 275.5q0 199 93 399q152 327 440 435q100 38 224 38q260 0 372 -223q4 -10 4 -26.5t-21.5 -36t-40 -19.5t-28.5 4q-36 65 -72 105l-119 -486q-35 -135 -60.5 -271.5
t-53.5 -252.5t-47 -198.5t-37.5 -164.5t-38 -169t-40 -175.5t-45.5 -132t-61 -43.5zM1032 1921q-76 41 -168 41q-167 0 -310.5 -113t-229.5 -281.5t-86 -321t77 -260t179 -107.5q75 0 157 39q9 7 27.5 14.5t56.5 34t60 26.5l6 -2q103 447 213 881q-2 5 -2 8v4q3 23 20 37z
" />
    <glyph glyph-name="uni0430" unicode="&#x430;" horiz-adv-x="920" 
d="M150 0q-117 0 -117 147t109.5 360.5t257.5 369t241.5 155.5t106.5 -82q4 -25 6 -53q9 6 22 6q47 0 47 -45v-8q0 -3 -25 -90t-57 -290t-32 -347q9 -6 21 -13.5t30 -23t18 -36.5t-13 -37.5t-37 -16.5q-49 0 -88.5 50t-39.5 108q0 125 68 430q-85 -178 -220 -343
t-186.5 -203t-111.5 -38zM135 143q0 -37 31 -37q22 0 37 15q207 178 371 493q93 180 98.5 207t5.5 46t-10 36t-28 17t-53 -19q-77 -42 -189.5 -179t-187.5 -298t-75 -281z" />
    <glyph glyph-name="uni0431" unicode="&#x431;" horiz-adv-x="782" 
d="M268 -25q-188 0 -188 232q0 272 96 531q69 185 178 265q56 41 106 41q98 0 134 -38q-25 75 -65 145.5t-79 142.5q-94 177 -94 335.5t91 259t227 100.5q76 0 150 -22t119 -32t108.5 -10t101 6.5t62 15t42 15t41.5 6.5q37 0 37 -31q0 -47 -78.5 -76.5t-163.5 -29.5t-130 10
t-131.5 32.5t-187.5 22.5t-152 -96q-39 -74 -39 -171t25.5 -174t106.5 -213q132 -219 132 -378l-10 -92v-4q0 -251 -121 -508q-81 -173 -194 -247q-58 -38 -124 -38zM600.5 660q11.5 70 11.5 140t-36.5 104t-90 34t-90.5 -31.5t-86.5 -111t-94 -236t-44.5 -266.5t13 -146
q26 -71 83 -71t101.5 39t82 101t67.5 140t51 156t32.5 148z" />
    <glyph glyph-name="uni0432" unicode="&#x432;" horiz-adv-x="676" 
d="M594 1985q141 0 141 -173q0 -215 -190 -492q-53 -78 -148.5 -214.5t-148.5 -253.5q-9 -21 -29 -31l-6 -39q195 254 358 254q69 0 98 -89q19 -59 19 -131q0 -139 -61 -339t-155 -335q-112 -162 -234 -162q-64 0 -110 92.5t-46 216t8 200.5q-31 4 -31 35q0 11 4 23l41 71
q42 308 181 838q93 348 227 484q43 45 82 45zM174 369q0 -289 84 -289q78 0 154.5 131t127 312.5t50.5 267t-10 108.5t-52 23q-79 0 -180 -110q-67 -73 -162 -226q-12 -117 -12 -217zM491 1754q-123 -243 -229 -716q33 56 73.5 117t112.5 171q187 290 187 448q0 49 -6 75.5
t-31 26.5q-46 0 -107 -122z" />
    <glyph glyph-name="uni0433" unicode="&#x433;" horiz-adv-x="637" 
d="M401 1075q121 0 121 -144q0 -115 -185 -362t-185 -347q0 -77 32.5 -106.5t71.5 -29.5t66 14q50 25 123.5 98.5t109 73.5t35.5 -34q0 -22 -16 -41q-77 -88 -118 -122q-104 -85 -201.5 -85t-146.5 59.5t-49 131.5t25 137.5t63.5 129t84.5 125t87 123.5q96 143 109 248
q-17 37 -58.5 37t-97.5 -43q-49 -41 -50.5 -61t-19.5 -38t-32 -18q-41 0 -41 38q0 77 91.5 146.5t180.5 69.5z" />
    <glyph glyph-name="uni0434" unicode="&#x434;" horiz-adv-x="778" 
d="M729 274q35 0 35 -34q0 -28 -16 -41q-113 -87 -216 -160q-17 -96 -34 -193t-40.5 -214t-58 -220.5t-100 -177.5t-163 -74t-164 66.5t-66.5 168.5t47.5 188t124 167.5t172 161t192.5 160.5q10 45 25 108t35 148q-80 -245 -202 -320q-40 -24 -75 -24q-71 0 -117.5 57
t-46.5 152q0 175 66 370.5t182 337t254 141.5q70 0 125 -32q12 6 27 6q33 0 33 -33.5t-12 -65.5q-57 -151 -191 -778q37 26 74.5 60t63 54.5t46.5 20.5zM154 227.5q0 -145.5 76 -145.5q64 0 148 122t132 273t79.5 268.5t51.5 188.5q-32 27 -79 27q-91 0 -186 -119
t-158.5 -294t-63.5 -320.5zM426 -39q-186 -154 -266 -248q-154 -183 -154 -295.5t48 -141.5q21 -13 63.5 -13t77 18t66 67.5t62 137t50 180t26 127.5t11.5 64t8.5 54.5t7.5 49.5z" />
    <glyph glyph-name="uni0435" unicode="&#x435;" horiz-adv-x="664" 
d="M518 168q35 0 35 -37q0 -43 -105 -97t-175 -54t-105 23t-57 64q-43 80 -43 193q0 200 60 377t160 293.5t216 116.5q62 0 97.5 -51.5t35.5 -121.5q0 -131 -68.5 -222t-168.5 -149t-230 -110l-4 -147q0 -172 104 -172q56 0 117.5 32.5t88.5 47t42 14.5zM543 870
q0 80 -67 80q-60 0 -141 -108t-134 -285q-13 -43 -15 -65q40 22 82 42t82 42q92 51 142.5 119.5t50.5 174.5z" />
    <glyph glyph-name="uni0436" unicode="&#x436;" horiz-adv-x="1272" 
d="M729 537q-29 -45 -41 -70v-2q-3 -22 -16 -35q-42 -208 -72 -393q-5 -25 -23 -41t-34 -16q-33 0 -37 43l76 419q-7 11 -11.5 23t-9.5 24q-45 -65 -86 -131t-85 -129q-103 -147 -214 -225q-42 -31 -85 -31q-78 0 -132.5 72t-54.5 154q6 20 23.5 34.5t33.5 14.5t24.5 -14.5
t23.5 -72.5q23 -87 86 -87q102 0 231 198q37 55 110.5 175.5t91.5 138.5q-19 63 -38 129q-72 243 -164 243q-69 0 -119 -67q-7 -10 -27 -10q-37 0 -37 34q0 52 66 92t122 40q112 0 156 -107q22 -55 62 -182.5t57 -175.5q46 243 62.5 308.5t21.5 108.5q6 20 23.5 35t36.5 15
q24 0 34 -35q0 -42 -12 -80t-28.5 -132t-28.5 -151q162 218 306 325q83 62 132.5 62t92 -51.5t42.5 -88t-16.5 -54t-37.5 -17.5t-33.5 18t-22 39.5t-18 39.5t-21.5 18t-50 -20.5t-137 -123t-143 -153.5q4 -190 59 -361q41 -123 112 -178q36 -28 78 -28q84 0 177 121
q20 16 41 16q37 0 37 -33q0 -54 -86 -127t-155 -73q-119 0 -198 110q-105 146 -145 445z" />
    <glyph glyph-name="uni0437" unicode="&#x437;" horiz-adv-x="784" 
d="M138 819q-38 0 -38 43q0 20 33.5 52.5t86.5 61.5q124 66 241.5 66t161 -46.5t43.5 -137.5q0 -204 -191 -377q103 -46 103 -241q0 -26 -5 -84l156 110q13 8 29 8q35 0 35 -36q0 -21 -17 -41q-8 -6 -54.5 -36.5t-158.5 -111.5q-35 -267 -95.5 -477.5t-95.5 -270.5t-64 -87
q-60 -54 -137 -54q-134 0 -197 86q-54 71 -54 179q0 170 172 347q121 124 383 314q8 85 8 152t-21 115t-83 50l-29 -20q-145 -102 -219 -102q-29 0 -40 13.5t-11 29t24.5 42t88.5 67.5t159 59q112 98 148 147q75 104 75 215q0 48 -24 71t-88 23t-112.5 -12.5t-120.5 -64.5
t-92 -52zM400 -309q38 140 61 284q-248 -188 -374 -341q-79 -97 -79 -191t39.5 -144.5t101.5 -50.5t100 45q67 80 151 398z" />
    <glyph glyph-name="uni0438" unicode="&#x438;" horiz-adv-x="922" 
d="M836 1028q34 0 34 -35.5t-33 -145t-42.5 -152t-22 -108t-24.5 -133.5t-25.5 -145t-32.5 -172q0 -37 12.5 -52.5t18.5 -22.5t6 -27.5t-23.5 -38t-48.5 -17.5t-49 38.5t-24 65.5v35q0 51 35.5 186.5t51.5 196t27 113.5q-25 -51 -54 -117.5t-86 -188.5q-152 -324 -324 -324
q-104 0 -140 113q-10 33 -10 90.5t12 137t30.5 157t40.5 151.5t54 182.5t35 167.5q6 20 23.5 34.5t37 14.5t33.5 -53q0 -69 -31 -172t-53 -171q-84 -260 -84 -458q0 -61 48 -86q17 -8 44 -8q57 0 137 115t155.5 277.5t116.5 279.5t61 162q51 110 94 110z" />
    <glyph glyph-name="uni0439" unicode="&#x439;" horiz-adv-x="993" 
d="M1006 1561q36 0 36 -36q0 -14 -8 -28q-99 -135 -177 -195q-148 -114 -269 -114t-186.5 81.5t-65.5 209.5q0 26 18 44.5t39 18.5t30 -20.5t22 -110.5q19 -131 127 -131q130 0 240 92q69 57 153 172q20 17 41 17zM836 1028q34 0 34 -35.5t-33 -145t-42.5 -152t-22 -108
t-24.5 -133.5t-25.5 -145t-32.5 -172q0 -37 12.5 -52.5t18.5 -22.5t6 -27.5t-23.5 -38t-48.5 -17.5t-49 38.5t-24 65.5v35q0 51 35.5 186.5t51.5 196t27 113.5q-25 -51 -54 -117.5t-86 -188.5q-152 -324 -324 -324q-104 0 -140 113q-10 33 -10 90.5t12 137t30.5 157
t40.5 151.5t54 182.5t35 167.5q6 20 23.5 34.5t37 14.5t33.5 -53q0 -69 -31 -172t-53 -171q-84 -260 -84 -458q0 -61 48 -86q17 -8 44 -8q57 0 137 115t155.5 277.5t116.5 279.5t61 162q51 110 94 110z" />
    <glyph glyph-name="uni043A" unicode="&#x43a;" horiz-adv-x="938" 
d="M328 1038q25 0 34 -34q0 -42 -8 -75t-21.5 -112.5t-33.5 -182.5q226 318 389 397q37 18 73.5 18t78 -52.5t41.5 -88.5t-17 -53t-38 -17t-33.5 18t-22 39t-18 39t-21.5 18t-57 -25t-137 -125.5t-136 -157.5q21 -200 81 -345t126 -197q34 -26 69.5 -26t56.5 18t34.5 58.5
t25 44.5t23.5 4t27.5 -14t15.5 -53.5t-34 -78.5q-67 -75 -136 -75q-197 0 -306 324q-45 132 -59 230q-20 -33 -44 -77l-25 -46q-41 -218 -63 -374q-4 -25 -22.5 -41t-34.5 -16q-34 0 -38 43q25 138 71 413t68 376.5t31 176.5q6 20 23.5 34.5t36.5 14.5z" />
    <glyph glyph-name="uni043B" unicode="&#x43b;" horiz-adv-x="942" 
d="M-2 188q0 -125 119 -125q92 0 181 92.5t158 231.5t96 230.5t54 178.5t61.5 159.5t71.5 72.5t37 -39q0 -31 -39 -146.5t-70.5 -292t-31.5 -366.5q0 -101 41 -112q10 -2 24.5 -2t28 3t26.5 10.5t29 21t39.5 32.5t41.5 19q38 0 38 -39t-77.5 -87t-142.5 -48q-132 0 -132 284
q0 66 12 152q-74 -190 -203.5 -316.5t-257.5 -126.5q-75 0 -109 27q-53 44 -79 129q-4 10 -4 26.5t16.5 35t37 18.5t34.5 -23z" />
    <glyph glyph-name="uni043C" unicode="&#x43c;" horiz-adv-x="1061" 
d="M407 1030q48 0 48 -48q0 -22 -13 -58q0 -33 14 -93t27 -162t39 -188q53 58 96 105q215 235 262 314q88 144 138 144q36 0 45 -34q-22 -221 -117 -511t-123 -458q-5 -25 -23 -41t-34 -16q-33 0 -37 43q22 184 90.5 375t116.5 425l-78 -96q-41 -49 -77 -95
q-130 -167 -240 -257q-20 -12 -42.5 -12t-38.5 20.5t-29 65.5t-25.5 116t-30.5 172l-10 45q-175 -402 -224.5 -533.5t-51 -138.5t-4 -20t-7.5 -24q8 -8 8 -24.5t-18.5 -33t-42.5 -16.5q-35 0 -35 38q0 167 368 959q26 37 49 37z" />
    <glyph glyph-name="uni043D" unicode="&#x43d;" horiz-adv-x="979" 
d="M805 50q0 -73 -80 -73q-60 0 -88.5 31.5t-28.5 79.5t25.5 176.5t48.5 247.5q-152 -113 -276 -113q-92 0 -142 50q-7 -35 -14 -83t-20 -136q-38 -244 -111 -244q-33 0 -37 43q22 184 99.5 535.5t94.5 416.5q7 20 24 34.5t36 14.5q26 0 35 -35q-2 -48 -37 -213t-45 -235
q47 -51 141.5 -51t206.5 94q35 30 65 65q16 69 31 136.5t33 121t41.5 86.5t57.5 33t34 -39v-10q-114 -391 -142 -562t-34 -234t-8 -75.5t-2 -25t8.5 -12.5t16 6t32.5 6q35 0 35 -36z" />
    <glyph glyph-name="uni043E" unicode="&#x43e;" horiz-adv-x="780" 
d="M530 1034q189 0 189 -286q0 -223 -123 -479q-83 -172 -200 -248q-60 -39 -124 -39q-113 0 -162 90t-49 194q0 186 62.5 361t170 291t236.5 116zM262 703q-108 -216 -108 -422q0 -143 79 -192q24 -15 55 -15q64 0 143 111t133 273.5t54 279t-13.5 147.5t-31 43t-58 12
t-88.5 -32q-93 -60 -165 -205z" />
    <glyph glyph-name="uni043F" unicode="&#x43f;" horiz-adv-x="913" 
d="M698 810q0 99 -54 99q-72 0 -275 -413q-92 -187 -128.5 -282.5t-54.5 -134.5t-35.5 -59t-39 -20t-25.5 10.5t-4 38t80.5 472t93 467.5t22.5 29.5t36 6.5t40.5 -20t14.5 -35.5t-4 -30.5q-7 -27 -21 -67q-48 -137 -92 -388l-21 -121q23 48 52 115.5t86 193.5t127 225
q90 130 168 130q137 0 137 -221q0 -83 -23.5 -207t-52 -271t-31.5 -243l-12 -55q0 -22 -6.5 -31.5t-39 -9.5t-47 12t-9.5 43l100 598q18 111 18 169z" />
    <glyph glyph-name="uni0440" unicode="&#x440;" horiz-adv-x="856" 
d="M326 758q146 280 316 280q89 0 128 -52.5t39 -155.5q0 -189 -54 -385.5t-161.5 -334t-253.5 -137.5q-56 0 -90 24t-55 81q-51 -232 -96.5 -461.5t-94.5 -415.5q-20 -41 -57 -41q-31 0 -35 41q66 259 106 468t61.5 321t61 321.5t127.5 655.5v45q0 20 18.5 38.5t43 18.5
t36 -19t11.5 -36.5t-3 -31.5t-7 -27.5t-8 -26.5t-5 -23zM238 227q0 -157 116 -157q108 0 198 134q115 172 152 458q11 79 11 152q0 132 -65 132t-151 -95q-120 -133 -190.5 -315t-70.5 -309z" />
    <glyph glyph-name="uni0441" unicode="&#x441;" horiz-adv-x="694" 
d="M162 258q0 -182 133 -182q66 0 124 64q22 25 41 45t39 20q40 0 40 -35q0 -64 -82 -129.5t-185.5 -65.5t-157 76.5t-53.5 172.5q0 179 66.5 371t175 322t229.5 130q88 0 116 -63q7 -17 16.5 -43.5t21.5 -33.5q8 -13 8 -31.5t-17 -34.5t-38 -16q-43 0 -55 63.5t-67 63.5
q-77 0 -159.5 -117t-139 -284t-56.5 -293z" />
    <glyph glyph-name="uni0442" unicode="&#x442;" horiz-adv-x="709" 
d="M199 -31q-35 0 -35 41q0 22 14 39q18 45 38 133t31 129t21 104l22 132q31 181 52 246q44 131 102 131q21 0 33 -27l27 -70q0 -44 -30 -65q-10 -6 -22.5 -6t-21.5 12q-48 -185 -58 -254q-23 -159 -35.5 -205t-34.5 -132q-54 -208 -103 -208zM487 977q-207 0 -378 -57
q-5 -2 -9 -2h-8q-25 0 -42 14.5t-17 30t14 24.5q171 74 430 74q103 0 182 -9.5t121.5 -13.5t51 -15t8.5 -28t-19 -35t-53.5 -18t-116 17.5t-164.5 17.5z" />
    <glyph glyph-name="uni0443" unicode="&#x443;" horiz-adv-x="860" 
d="M774 266q35 0 35 -35q0 -21 -16 -41q-85 -76 -213 -176q-101 -536 -185 -698q-47 -92 -133 -143q-46 -27 -104 -27q-107 0 -164 76.5t-57 149.5q0 126 66 231t179 201q60 51 207 161l100 76q4 18 10.5 47.5t14 62.5t14.5 65.5t13 55.5q-36 -111 -121 -199.5t-165.5 -88.5
t-129.5 61t-49 172q0 172 98 542q49 184 49 200l-3 25q-2 13 26 33.5t47 20.5q41 0 41 -40q0 -37 -76 -345t-76 -412.5t25.5 -131.5t62.5 -27q79 0 166 131t149.5 361t85 320.5t39.5 115t44.5 24.5t34 -12.5t4.5 -22.5q-39 -187 -100.5 -444t-90.5 -428q40 35 71 66t55 52
t46 21zM465 -78l-35 -31q-71 -60 -141 -117q-248 -200 -248 -382q0 -84 55 -130q23 -18 61.5 -18t71 26t58.5 67t46.5 93t36.5 104t27.5 99.5t20.5 79.5z" />
    <glyph glyph-name="uni0444" unicode="&#x444;" horiz-adv-x="1247" 
d="M481 1044q108 0 150 -126l168 794q10 28 19.5 38.5t34.5 10.5q42 0 42 -55q-5 -18 -24.5 -112t-35 -167t-31.5 -149t-31.5 -149t-27.5 -132.5t-20.5 -99t-9.5 -47.5q120 192 260 192q91 0 151 -110t60 -200q0 -179 -48 -352t-140 -282q-110 -131 -263 -131
q-117 0 -170 107q-138 -626 -184 -873q-5 -20 -21 -34.5t-34 -14.5q-39 0 -39 45v11q0 27 73 332t113 530q-93 -76 -170 -76q-133 0 -195 114q-47 90 -47 230q0 250 99 460q71 150 188 214q59 32 133 32zM614 276q29 -219 148 -219q84 0 184 121q98 121 136 389
q10 71 10 137t-31 142q-39 96 -103 96q-118 0 -236 -256q-35 -77 -65 -168l-26 -139v-6q0 -49 -17 -97zM500 225q20 113 39 224.5t41 224.5q-12 131 -24 175q-25 95 -83 95q-142 0 -237 -226q-78 -188 -78 -363t81 -241q27 -22 72 -22t98.5 35.5t90.5 97.5z" />
    <glyph glyph-name="uni0445" unicode="&#x445;" horiz-adv-x="700" 
d="M-57 18q0 20 19 49t122 194.5t188 291.5q-6 14 -11.5 30.5t-24.5 71.5t-45 128.5t-34.5 99.5t-16.5 51.5t-14.5 44.5t-6.5 31.5t15 28.5t39.5 16t39 -19.5t23.5 -46.5t14.5 -55.5t13.5 -53.5t18 -53t20 -55.5t21 -56t23 -60.5q41 50 124.5 169.5t107 149.5t57.5 50
q15 6 29 6q32 -6 32 -32.5t-10 -45.5q-15 -30 -53.5 -76t-113.5 -156t-128 -173q111 -272 131 -331.5t42 -101t22 -79.5q-3 -22 -21.5 -36.5t-42.5 -14.5t-33 32q-3 34 -20.5 64.5t-35.5 83t-50 127t-64 155.5l-280 -430q-19 -30 -57.5 -30t-38.5 32z" />
    <glyph glyph-name="uni0446" unicode="&#x446;" horiz-adv-x="971" 
d="M588 -18q-41 0 -41 38q0 11 6 28.5t19 65t27.5 105t30.5 121t30.5 121t26 103.5t18.5 71q-108 -278 -242 -464.5t-225 -186.5q-68 0 -112 45.5t-44 134.5q0 41 15 106.5t28.5 132t38.5 185.5t43 188.5t23.5 109.5t13.5 72q16 70 53 70q45 0 45 -49t-20 -158.5t-78 -356
t-58 -292.5q0 -84 72 -84q168 0 469 798q36 95 56 121.5t45 26.5q49 0 49 -43q0 -28 -15 -64q-59 -147 -117 -489q-22 -131 -57 -274q94 69 132.5 108.5t45.5 46.5t19 7q27 0 35 -35q-4 -238 -83 -430q-125 -303 -329 -303q-148 0 -229 198q-3 8 -3 25t15 36t36 19t35 -22
q65 -162 160 -162q172 0 260 314q31 110 33 204q-32 -27 -65.5 -60t-84.5 -80.5t-77 -47.5z" />
    <glyph glyph-name="uni0447" unicode="&#x447;" horiz-adv-x="774" 
d="M217 868q-61 -90 -61 -182v-10l8 -35q0 -23 -16.5 -40t-36.5 -17q-50 0 -50 78q0 109 65 233.5t128 124.5q30 0 39 -33q0 -100 73 -125q22 -8 46 -8q67 0 120 45q73 141 146 141q37 -6 37 -52.5t-109 -137.5q-34 -68 -61.5 -142t-51.5 -135.5t-58 -174.5t-34 -229
t41 -116q50 0 165 157q18 24 30 42t23.5 28.5t33.5 10.5q37 0 37 -33q0 -16 -8 -31q-103 -134 -150 -180q-92 -88 -147 -88q-115 0 -115 178q0 234 101 479q31 76 67 158q-40 -14 -90 -14q-127 0 -172 108z" />
    <glyph glyph-name="uni0448" unicode="&#x448;" horiz-adv-x="1300" 
d="M1012 -18q-94 0 -94 90q0 30 26 119l39 133q13 45 31.5 106.5t29.5 101.5q-177 -327 -270.5 -437.5t-144.5 -110.5t-69.5 30t-18.5 80q0 152 32 357q-109 -210 -172 -298q-122 -169 -198 -169q-103 0 -117 79q-4 27 -4 65.5t4 75t9.5 68t11.5 58t27 126t33.5 180
t28 178.5t31.5 175q7 20 24 34.5t32 14.5q30 0 39 -34q-150 -750 -150 -881q0 -41 29 -41q77 0 181 164q128 202 242 529q29 85 46 152.5t26.5 85t40.5 25.5q41 0 41 -50.5t-37 -168.5q-94 -453 -106 -550.5t-12 -130.5t6 -44.5t29 -11.5q92 0 333 496q112 230 139.5 312.5
t43 113t43.5 30.5t36.5 -10.5t8.5 -38.5q-11 -38 -31 -102.5t-43.5 -143.5t-49.5 -166t-64 -218.5t-51 -183t-14 -51.5t-1 -16q0 -26 31.5 -26t58 25.5t47.5 25.5q39 0 39 -42.5t-58 -73.5t-114 -31z" />
    <glyph glyph-name="uni0449" unicode="&#x449;" horiz-adv-x="1360" 
d="M1055 -6q-80 0 -80 86q0 49 18 121l-28 -37q-152 -187 -267 -187q-72 0 -113.5 77.5t-41.5 217.5v29l-25 -51q-65 -133 -106 -181q-86 -102 -181.5 -102t-132.5 93q-16 39 -16 76v50q0 176 108 602q43 166 62 198q39 63 74.5 63t35.5 -27q0 -9 -6 -25l2 -2
q0 -13 -9.5 -25t-12.5 -14h-2q-24 -64 -37.5 -122.5t-24.5 -101.5q-94 -363 -94 -553q0 -113 55 -113q131 0 261 337q24 62 47 120.5t43 117.5q33 202 58 271t46 100v2q36 45 70 45q26 0 26 -35q-22 -115 -61 -225.5t-61 -177.5q-19 -124 -19 -334.5t94 -210.5
q186 0 375 626q25 82 55.5 185.5t38.5 103.5q8 21 30.5 37t42 16t24.5 -24q4 0 6 2q-4 -10 -5.5 -34t-33.5 -101q-24 -74 -42 -127q-153 -460 -153 -635v-19q0 -9 2 -18q217 0 217 -190q0 -212 -261 -286q-97 -28 -197 -28q-254 0 -254 51q0 33 46 57q13 7 25 9
q156 -25 224 -25q139 0 229 48t90 145q0 72 -14 92q-26 35 -105 35q-6 -2 -11 -2h-11z" />
    <glyph glyph-name="uni044A" unicode="&#x44a;" horiz-adv-x="903" 
d="M449 868q-58 -24 -132.5 -24t-123.5 53q-40 -97 -65 -159.5t-30 -74t-21 -21t-31.5 -9.5t-26.5 11.5t-11 24.5t10 31q15 30 62 146q67 166 125 166q19 0 42.5 -24.5t37.5 -37.5q16 -14 39.5 -14t88.5 23t95 55l31 59q22 19 43 19q34 0 34 -34q0 -61 -49 -112
q-50 -133 -116 -428q98 137 198.5 137t151.5 -70t51 -165q0 -183 -114 -314t-271 -131q-87 0 -125.5 67t-38.5 145t11 130q78 389 135 551zM758 404q0 147 -96 147q-74 0 -117 -48.5t-73 -104.5q-58 -106 -72.5 -121t-14.5 -73t25.5 -97t71.5 -39q82 0 144.5 55t97 131.5
t34.5 149.5z" />
    <glyph glyph-name="uni044B" unicode="&#x44b;" horiz-adv-x="1274" 
d="M223 -2q-151 0 -151 192q0 238 94 497q36 101 56 168t26 142q6 20 23.5 35t35.5 15q25 0 35 -35q-9 -97 -37.5 -193t-60.5 -193q-80 -250 -80 -403q0 -83 34 -119q14 -14 51 -14t84.5 32.5t82.5 83.5q78 111 78 238q0 31 -7 58q-141 29 -141 94q0 38 37.5 64t68.5 26
q63 0 105 -104q36 -9 84 -9q124 0 222.5 61.5t160.5 164.5q10 28 21 71q43 166 112 166q37 0 37 -51q-37 -127 -94 -227q-131 -377 -131 -580q0 -110 29 -110t52 18.5t44.5 40.5t41.5 40.5t38 18.5q38 0 38 -34q0 -21 -16 -41q-29 -26 -53 -50.5t-61.5 -55t-101 -30.5
t-86 41.5t-22.5 138.5q0 164 82 429q-125 -99 -286 -99q-40 0 -86 4l6 -47q0 -150 -112.5 -297t-252.5 -147z" />
    <glyph glyph-name="uni044C" unicode="&#x44c;" horiz-adv-x="657" 
d="M248 -31q-176 0 -176 240q0 99 25.5 214.5t37.5 176.5l80 389q8 19 27.5 29t33.5 10t28.5 -18.5t14.5 -38.5l-66 -257q-30 -130 -62.5 -267.5t-32.5 -225.5t24.5 -123t79.5 -35q93 0 145.5 62.5t75.5 147.5t23 157q0 176 -86 176q-54 0 -100 -88q-29 -55 -43.5 -71.5
t-28.5 -16.5q-37 0 -37 35q0 21 43.5 87.5t67.5 92.5q54 57 106 57q88 0 128 -82t40 -186q0 -195 -100 -330t-248 -135z" />
    <glyph glyph-name="uni044D" unicode="&#x44d;" horiz-adv-x="782" 
d="M222 694q-38 0 -38 42q0 21 60.5 86.5t101.5 92.5q122 86 199 86q149 0 149 -313q0 -88 -18 -176h2q35 0 35 -37q0 -18 -19 -39t-45 -35q-92 -295 -271 -401q-61 -35 -118 -35q-107 0 -178.5 70.5t-73.5 167.5q6 20 24.5 34.5t35.5 14.5q26 0 34 -35q2 -65 46 -114.5
t93 -49.5q77 0 149 70.5t147 257.5q-45 5 -125 37.5t-113 32.5t-75 -16.5t-65 -32t-39 -15.5q-36 0 -36 47t89 89q47 22 103.5 22t87.5 -11t85.5 -35t97.5 -24h18q37 132 37 239t-26 148t-54.5 41t-52.5 -11t-48.5 -29t-48.5 -40t-46 -43.5t-40 -41.5q-41 -44 -64 -44z" />
    <glyph glyph-name="uni044E" unicode="&#x44e;" horiz-adv-x="1227" 
d="M119 -25q-37 0 -37 35q0 11 15 59t36 137t38.5 180t33.5 183t26.5 149.5t20.5 149.5t28 134q23 59 63 59t40 -60q-3 -13 -14 -30q-22 -109 -30.5 -163t-29.5 -137t-26 -114q68 25 159 25l131 -4q47 161 172 342q77 108 251 108q50 0 97 -31t56 -92q10 -10 16 -28
q-7 -255 -47.5 -400.5t-92 -243t-132.5 -172.5q-46 -41 -114 -59t-105 -18q-71 0 -108.5 77.5t-37.5 193t23 230.5q-44 2 -102.5 2t-106.5 -10t-56.5 -23t-25.5 -20q-18 -106 -37 -212t-57 -222q-19 -25 -47 -25zM623 264q0 -196 94 -196q63 0 148.5 85.5t121 177.5t56 196
t28.5 311q-9 9 -14 22q-5 74 -77 74q-129 0 -216 -122q-71 -100 -106 -256.5t-35 -291.5z" />
    <glyph glyph-name="uni044F" unicode="&#x44f;" horiz-adv-x="786" 
d="M766 977q29 0 35 -35q0 -99 -65 -210q-15 -25 -25 -30q-21 -117 -39 -204.5t-42.5 -208.5t-30 -190t-11.5 -80q-14 -29 -47 -29t-37 15t-4 32q23 218 96 541q-124 -143 -211.5 -266t-125.5 -174.5t-73 -86.5q-71 -71 -155 -71t-129 44q-15 14 -15 34.5t17.5 37.5t39 17
t32.5 -14.5t21.5 -19.5t44 -5t66.5 20.5t68.5 60t77.5 96.5t74.5 99.5t53 67t43.5 52.5t44.5 52.5t30.5 36.5q-104 -96 -178 -96q-47 0 -78 30.5t-31 98.5t59 185.5t150 201.5t172.5 84t125.5 -56q12 -16 23 -34q10 4 23 4zM629 743q24 102 47 152q-29 50 -45.5 59t-40.5 9
q-54 0 -123.5 -61.5t-114.5 -147t-45 -139.5q0 -83 47 -83q88 0 220 148q32 36 55 63z" />
    <glyph glyph-name="uni0451" unicode="&#x451;" horiz-adv-x="694" 
d="M690 1374q66 0 66 -89q0 -34 -36 -79t-73.5 -45t-65.5 32q-8 9 -8 19q-6 8 -6 45t41 77t82 40zM354 1386q28 0 57 -31t29 -68t-49.5 -84.5t-79.5 -47.5t-47.5 38t-17.5 68t8 52t22 38t32 25.5t46 9.5zM512 168q35 0 35 -37q0 -43 -105 -97t-175 -54t-105 23t-68 83
t-33 173q0 198 64.5 372.5t170.5 287.5t220.5 113t114.5 -178t-157 -292q-78 -57 -168.5 -99.5t-141.5 -69.5l-10 -147q0 -172 110 -172q57 0 117.5 32.5t88 47t42.5 14.5zM498 936q-13 0 -21 -4q-111 -48 -187.5 -171.5t-109.5 -268.5q40 22 82 41t81.5 39.5t75 45.5
t61.5 58.5t41.5 77t15.5 113t-39 69.5z" />
    <glyph glyph-name="uni0452" unicode="&#x452;" horiz-adv-x="909" 
d="M715 811q0 111 -57 111q-109 0 -295 -323q-106 -183 -128.5 -254t-32 -109t-17.5 -78.5t-14.5 -65t-6.5 -35.5l2 -26q0 -47 -76 -47q-11 0 -23 14.5t-12 34.5v8q30 152 106.5 497.5t174.5 814.5q-117 3 -151.5 13t-52.5 19q-13 14 -13 32t18.5 34t40 16t46.5 -7.5
t51 -7.5l61 2l20 -1q66 325 88 466l9 27q9 30 36 30q52 0 64 -51q-6 -30 -16 -78.5t-22.5 -110.5t-28 -135t-31.5 -151h45q59 0 199 8q33 -11 33 -35q0 -45 -54 -59q-42 -12 -170 -12h-73q-127 -605 -161 -758q149 325 308 408q43 22 88 22q125 0 125 -180q0 -66 -71 -494
t-90 -578q-38 -286 -175 -442q-158 -178 -436 -178q-111 0 -184 40q-23 12 -23 30t15.5 36t35.5 23q66 -26 175 -26q400 0 499 524z" />
    <glyph glyph-name="uni0453" unicode="&#x453;" horiz-adv-x="649" 
d="M403 1251q0 8 5 23q21 40 64.5 151t82.5 170q19 17 37 17q41 0 41 -33q0 -16 -11 -34t-25.5 -51t-29 -70t-29.5 -74q-52 -133 -100 -133q-35 0 -35 34zM410 179q93 93 128 93t35 -37q0 -18 -16 -37q-169 -208 -321 -208q-97 0 -145 59.5t-48 131.5t25 137.5t63.5 129
t84.5 125t87 123.5q96 143 109 248q-18 37 -59 37t-97 -43q-49 -41 -50.5 -61t-20.5 -38t-33 -18q-39 0 -39 38q0 76 90.5 146t181.5 70q121 0 121 -144q0 -117 -185.5 -362t-185.5 -348q0 -135 115 -135q67 0 160 93z" />
    <glyph glyph-name="uni0454" unicode="&#x454;" horiz-adv-x="659" 
d="M379 129q35 0 35 -38.5t-62.5 -67.5t-116 -29t-84 19.5t-49 49.5t-28.5 67q-19 74 -19 217q0 51 29 155q-16 13 -16 36q0 42 49 66q63 166 168 283t229 117q77 0 131.5 -53.5t71.5 -153.5q-7 -36 -40 -53q-10 -5 -20 -5q-22 0 -34 29q-8 60 -44.5 102.5t-82.5 42.5
q-150 0 -267 -282q17 -2 56.5 -18.5t59.5 -16.5t43 13.5t38 13.5q35 0 35 -39t-48.5 -58.5t-74.5 -19.5t-66.5 16t-74.5 19q-47 -153 -47 -256t12 -132q23 -56 94 -61q44 0 72 14t51 23z" />
    <glyph glyph-name="uni0455" unicode="&#x455;" horiz-adv-x="571" 
d="M348 956q-100 0 -100 -116q0 -77 36 -159t61 -131q97 -193 97 -295.5t-62 -174.5t-179 -86h-13q-114 0 -163 139q-2 5 -2 9v10q0 21 12.5 34.5t27.5 16.5h11q20 0 32.5 -16t23.5 -35.5t24 -35.5t44 -16q70 0 110 42.5t40 94.5t-15 97q-25 77 -87 192q-101 189 -101 294.5
t53 172t150 66.5q60 0 103 -25q81 -47 81 -105.5t-49 -58.5q-18 0 -29.5 13.5t-24.5 29.5q-35 43 -81 43z" />
    <glyph glyph-name="uni0456" unicode="&#x456;" horiz-adv-x="438" 
d="M442 1314q0 -97 -84 -97q-33 0 -53 20t-20 43.5t9 40t23 29t31.5 19.5t36.5 7t45 -14q12 -16 12 -48zM242 909v20q0 14 -15 68q0 25 17 45.5t41.5 20.5t40.5 -31t16 -68t-94 -442t-94 -426.5t20 -21.5q13 0 37 25.5t41 25.5q33 0 33 -41.5t-62 -72.5t-90 -31
q-70 0 -70 112q0 23 9.5 51.5t20 79t30 137.5t40 180t50 225.5t29.5 143.5z" />
    <glyph glyph-name="uni0457" unicode="&#x457;" horiz-adv-x="487" 
d="M515 1362q12 -16 12 -61t-26 -64.5t-58.5 -19.5t-53 20t-20.5 43.5t9 40t23.5 29t32 19.5t36.5 7t45 -14zM246 909v20q0 14 -15 68q0 25 17 45.5t41.5 20.5t40.5 -31t16 -68t-94 -442t-94 -426.5t20 -21.5q13 0 37 25.5t41 25.5q33 0 33 -41.5t-62 -72.5t-90 -31
q-69 0 -69 112q0 23 9 51.5t19.5 79t30 137.5t40 180t50 225.5t29.5 143.5zM284 1362q12 -16 12 -60.5t-26 -64.5t-58.5 -20t-52.5 20t-20 43.5t9 40t23 29t31.5 19.5t36.5 7t45 -14z" />
    <glyph glyph-name="uni0458" unicode="&#x458;" horiz-adv-x="412" 
d="M412.5 1338q19.5 -26 19.5 -59t-26.5 -51t-55.5 -18t-50 27t-21 55.5t20 50t57 21.5t56.5 -26zM-633 -719q66 -26 175 -26q399 0 499 524q148 782 207 1214q5 23 22.5 35t34.5 12q35 0 35 -36l-44 -308q-111 -794 -210 -1098q-83 -254 -247 -361q-130 -85 -316 -85
q-111 0 -184 40q-23 12 -23 30t15.5 36t35.5 23z" />
    <glyph glyph-name="uni0459" unicode="&#x459;" horiz-adv-x="1079" 
d="M670 -31q-176 0 -176 240q0 99 25.5 214.5t37.5 176.5l64 315q-106 -66 -179.5 -313.5t-165.5 -419.5t-186 -172q-34 0 -76.5 19.5t-65 38.5t-22.5 42t17.5 39.5t37 16.5t29.5 -8q52 -47 87 -47t54 20.5t34.5 52t29 70t56.5 138t70.5 184t62 174.5t101 173t175.5 111h12
q32 0 37 -28q12 -19 12 -35l-66 -257q-30 -130 -62.5 -267.5t-32.5 -225.5t24.5 -123t79.5 -35q93 0 145 61.5t75.5 146.5t23.5 157q0 178 -86 178q-54 0 -100 -88q-29 -55 -43.5 -71.5t-28.5 -16.5q-37 0 -37 35q0 21 43.5 87.5t67.5 92.5q54 57 106 57q88 0 128 -82
t40 -186q0 -197 -101 -331t-247 -134z" />
    <glyph glyph-name="uni045A" unicode="&#x45a;" horiz-adv-x="1217" 
d="M1065 429q0 177 -85 177q-55 0 -101 -88q-29 -55 -43.5 -71.5t-28.5 -16.5q-37 0 -37 35q0 21 43.5 87.5t68.5 92.5q53 57 104 57q90 0 129.5 -82t39.5 -186q0 -195 -100 -330t-248 -135q-176 0 -176 240q0 99 30.5 237t34.5 170l-4 -20q-147 -109 -283 -109
q-83 0 -133 50q-8 -42 -16 -98.5t-24 -162.5q-42 -290 -117 -290q-33 0 -37 43q22 184 99.5 535.5t94.5 416.5q7 20 24 34.5t36 14.5q26 0 35 -35q-2 -47 -30 -165.5t-40 -194.5q12 -12 20.5 -21t28 -19.5t83.5 -10.5q116 0 183.5 58.5t120.5 166.5l37 180q17 39 62 39
q14 0 28.5 -18.5t14.5 -38.5l-35 -129q-19 -72 -49.5 -203.5t-54 -230t-23.5 -187.5t24.5 -123.5t79.5 -34.5q93 0 146.5 63.5t75.5 147.5t22 155z" />
    <glyph glyph-name="uni045B" unicode="&#x45b;" horiz-adv-x="909" 
d="M1202 1990l98 -3q13 0 27 2q35 -9 35 -35q0 -62 -100 -62q-489 0 -723 -30q-34 -205 -99 -463.5t-108 -499.5q168 154 319 154q112 0 125 -173q4 -45 4 -82.5t-3 -74.5t-8 -81.5t-12 -100t-22.5 -187.5t-24 -229.5t-13.5 -109.5t-18.5 -27t-32.5 -15l-34 17q-6 12 -6 24
v11q9 93 44.5 334t35.5 375.5t-17.5 178t-64.5 43.5q-75 0 -185.5 -86t-122.5 -141q-47 -205 -86 -416.5t-44 -254t-24 -58.5t-36 -16q-32 0 -36 43q33 312 174 929q38 167 98.5 431.5t97.5 474.5q-231 6 -320 6t-194 -6q-43 4 -43 34q0 66 147 66q15 0 435 -8q27 86 78 86
q28 0 35 -35l4 -41l-2 -10h23.5t270 18t328.5 18z" />
    <glyph glyph-name="uni045C" unicode="&#x45c;" horiz-adv-x="868" 
d="M1425 -180q37 0 37 -33q0 -64 -105.5 -128.5t-291.5 -64.5q-279 0 -514 392q-160 268 -225 549l-45 -78l-25 -47q-30 -142 -63 -373q-4 -25 -22.5 -41t-34.5 -16q-34 0 -38 43q25 138 71 413t66 366t33 208q6 20 23.5 34.5t36.5 14.5q25 0 34 -35q0 -42 -8 -85t-14 -81
l-41 -231q194 263 351 363q59 38 102.5 38t86.5 -52q42 -53 42 -89t-17 -53t-38 -17t-33.5 18t-22 39.5t-18 39.5t-21.5 18t-52 -22t-135.5 -122t-140.5 -151q30 -181 135 -415q179 -392 402 -501q61 -30 161.5 -30t167.5 24t115 88q19 17 41 17zM581 1185q-46 0 -46 47
q0 15 21.5 45t47 75.5t48.5 93t45 94.5t45 92q23 31 51 31q37 0 37 -35q0 -16 -15.5 -45t-37.5 -76.5t-61 -127.5t-89 -144q-3 -20 -18 -35t-28 -15z" />
    <glyph glyph-name="uni045E" unicode="&#x45e;" horiz-adv-x="860" 
d="M774 266q35 0 35 -35q0 -21 -16 -41q-85 -76 -213 -176q-101 -536 -185 -698q-47 -92 -133 -143q-46 -27 -104 -27q-107 0 -164 76.5t-57 149.5q0 126 66 231t179 201q60 51 207 161l100 76q4 18 10.5 47.5t14 62.5t14.5 65.5t13 55.5q-36 -111 -121 -199.5t-165.5 -88.5
t-129.5 61t-49 172q0 172 98 542q49 184 49 200l-3 25q-2 13 26 33.5t47 20.5q42 0 42 -40t-54.5 -239t-83.5 -321.5t-29 -211.5q0 -144 100 -144q81 0 168 131t149.5 361t85 320.5t39.5 115t44.5 24.5t34 -12.5t4.5 -22.5q-39 -187 -100.5 -444t-90.5 -428q40 35 71 66
t55 52t46 21zM465 -78l-35 -31q-71 -60 -141 -117q-248 -200 -248 -382q0 -84 55 -130q23 -18 61.5 -18t71 26t58.5 67t46.5 93t36.5 104t27.5 99.5t20.5 79.5zM954 1548q37 0 37 -32q0 -18 -8 -31q-228 -309 -451 -309q-116 0 -181.5 81.5t-65.5 208.5q0 26 17.5 45t39 19
t30.5 -20.5t22 -110.5q19 -131 126 -131q130 0 240 91q65 53 153 173q20 16 41 16z" />
    <glyph glyph-name="uni045F" unicode="&#x45f;" horiz-adv-x="866" 
d="M74 -41q-35 0 -35 43q0 88 37.5 346.5t52 341t19.5 160.5t24 125v6h2q19 43 56.5 43t37.5 -68q-3 -19 -16 -32q-8 -45 -10.5 -88t-18.5 -136t-33.5 -233.5t-42.5 -280.5q5 12 5 31q-5 -21 -5 -31v-4l-10 -92q40 10 81 12.5t117.5 15.5t184.5 13q78 443 104 537
q62 220 72 295q7 20 24 34.5t32 14.5q29 0 39 -35q-10 -70 -39 -176.5t-48 -197.5t-43 -221t-49 -261q21 -8 21 -40.5t-37 -47.5q-14 -28 -45 -37q-23 0 -34 10.5t-11 24.5v2l-29 2q-44 0 -100 -4q-4 -91 -29.5 -252t-28.5 -260q-3 -25 -21.5 -41.5t-33.5 -16.5
q-39 0 -39 43q1 94 28 274.5t30 244.5q-94 -10 -158 -29l-4 -8q-2 0 -2 -1t-2 -3q-20 -23 -43 -23z" />
    <glyph glyph-name="uni0490" unicode="&#x490;" horiz-adv-x="989" 
d="M340 1853q-116 0 -121 52q0 57 43 66q13 3 31 5l133 -16q27 59 70 59q32 0 32 -49q-2 -4 -2 -10q200 20 368 20h188q19 0 36 -2q74 206 107 275q23 31 51 31q37 0 37 -35q0 -16 -21 -54t-42 -105.5t-46 -135.5q19 -19 -6 -43t-51 -27q-42 8 -103 8l-430 -8q-20 0 -106 -6
q-54 -261 -138 -715t-129.5 -690.5t-105.5 -472.5q-5 -20 -23.5 -29.5t-33.5 -9.5q-35 0 -35 33q0 10 21.5 100.5t66 303t137 716t142.5 741.5q-11 -2 -33 -2h-37z" />
    <glyph glyph-name="uni0491" unicode="&#x491;" horiz-adv-x="547" 
d="M209 915q-113 0 -119 54q0 38 14.5 45t28 7.5t31.5 2.5h63q29 59 70 59q33 0 33 -39v-12q93 6 225 6q9 24 19 55t30 89q55 151 107 151q37 0 37 -35q0 -13 -20 -51.5t-42 -104t-45 -130.5q4 -10 4 -26t-18.5 -34t-44.5 -16t-31 4q-197 0 -221 4q-5 -2 -10 -2h-11
q-66 -318 -88.5 -432t-31 -152t-20 -87t-28 -114t-39.5 -157q-5 -20 -23 -29.5t-34 -9.5q-35 0 -35 33q0 10 16 77t34.5 148t31 134.5t19.5 86.5t12.5 59l11 52t28 136t34.5 165t12 63zM330 1028h-1q-1 0 -1 2v-4z" />
    <glyph glyph-name="endash" unicode="&#x2013;" horiz-adv-x="1395" 
d="M321 600q-147 0 -139 23q-10 10 -10 29t17 36t33 17t30 -7q8 1 86 1t160 10q358 39 721 39q34 -9 34 -35q0 -19 -14.5 -36t-34.5 -24q-368 0 -601.5 -26.5t-281.5 -26.5z" />
    <glyph glyph-name="emdash" unicode="&#x2014;" horiz-adv-x="1473" 
d="M1389 629l-273 6q-171 0 -506 14.5t-508 14.5h-63q-43 4 -43 34q0 57 92 62q25 2 117 2t410 -16.5t495 -16.5l164 2q145 0 160 -12q36 0 36 -35q0 -55 -81 -55z" />
    <glyph glyph-name="quoteleft" unicode="&#x2018;" horiz-adv-x="489" 
d="M473 2281q37 0 37 -32q0 -18 -8 -31q-84 -103 -99.5 -157t-15.5 -84t4 -52q31 17 64 17t60.5 -19.5t27.5 -55t-47.5 -81t-81.5 -45.5q-60 0 -89.5 69.5t-29.5 149.5q0 136 137 305q20 16 41 16z" />
    <glyph glyph-name="quoteright" unicode="&#x2019;" horiz-adv-x="508" 
d="M362 1442q-38 0 -38 37q0 22 24 45q63 50 90 103t27 145l-4 30q-39 -30 -69 -30t-64 27q-33 28 -33 67t42.5 80t88.5 41l55 -11q59 0 76 -137q4 -32 4 -65q0 -81 -45.5 -170t-120.5 -150q-15 -12 -33 -12z" />
    <glyph glyph-name="quotesinglbase" unicode="&#x201a;" horiz-adv-x="344" 
d="M111 51q-48 -57 -103 -57t-78 36q-8 13 -8 41.5t39 93t92 64.5q31 0 69 -22q83 -49 83 -122t-49.5 -180t-84 -137t-53.5 -30q-41 0 -41 37q0 11 13 35q121 149 121 241z" />
    <glyph glyph-name="quotedblleft" unicode="&#x201c;" horiz-adv-x="813" 
d="M416 1724q-121 0 -121 189q0 112 61 250.5t109 138.5q33 0 33 -49q-7 -17 -59.5 -130t-55.5 -163q51 22 78 22t48 -33t21 -86t-30 -96t-84 -43zM797 2281q37 0 37 -32q0 -16 -9 -31q-85 -108 -99.5 -159.5t-14.5 -81.5t4 -52q31 17 64 17t60 -19.5t27 -55t-47.5 -81
t-80.5 -45.5q-61 0 -90.5 69.5t-29.5 148.5q0 136 138 306q20 16 41 16z" />
    <glyph glyph-name="quotedblright" unicode="&#x201d;" horiz-adv-x="831" 
d="M297 1458q0 20 12 35q74 62 103 195q8 40 10 81q-12 -4 -40 -4t-57.5 31t-29.5 77.5t44 85t77.5 38.5t47.5 -9q48 -34 48 -145.5t-25 -201t-66 -155t-82.5 -65.5t-41.5 37zM805 1976q80 0 80 -224q0 -55 -44.5 -144t-121.5 -154q-16 -12 -33 -12q-39 0 -39 37
q0 23 44 59.5t70.5 88.5t26.5 145l-4 30q-37 -30 -67.5 -30t-64.5 27t-34 54q0 53 43 93.5t89 40.5z" />
    <glyph glyph-name="quotedblbase" unicode="&#x201e;" horiz-adv-x="705" 
d="M434 225q131 0 131 -178q0 -56 -29.5 -126.5t-47.5 -98.5q-39 -62 -80 -62q-16 0 -26.5 10t-10.5 27.5t15 41.5t48.5 79t36.5 109q-23 -23 -58.5 -23t-57 40.5t-21.5 82t30 70t70 28.5zM111 51q-48 -57 -103 -57t-78 36q-8 13 -8 41.5t39 93t92 64.5q31 0 69 -22
q83 -49 83 -122t-49.5 -180t-84 -137t-53.5 -30q-41 0 -41 37q0 11 13 35q121 149 121 241z" />
    <glyph glyph-name="bullet" unicode="&#x2022;" horiz-adv-x="909" 
d="M391 475q-128 0 -165 175q-11 58 -11 110q0 89 77 145t169 56t144 -35q100 -67 100 -164t-102 -192t-212 -95z" />
    <glyph glyph-name="guilsinglleft" unicode="&#x2039;" horiz-adv-x="547" 
d="M475 723q0 -30 -35 -69q-59 -66 -336 -244q38 -31 68.5 -61t81.5 -78.5t113 -82.5q10 -8 10 -24.5t-24.5 -31.5t-46.5 -15q-63 0 -250 183q-70 70 -70 89t16 39t58.5 53.5t116 87t188.5 140.5l20 14q25 25 57.5 25t32.5 -25z" />
    <glyph glyph-name="guilsinglright" unicode="&#x203a;" horiz-adv-x="360" 
d="M184 385q-116 151 -125 283q10 42 47 60q12 5 27.5 5t24.5 -22q9 -102 86 -207q1 -4 22.5 -29t24.5 -35q26 -14 26 -39t-27 -48t-113 -59q-152 -64 -185 -140q-28 -41 -66 -41q-15 0 -20.5 9t-5.5 32q63 136 284 231z" />
    <glyph glyph-name="fraction" unicode="&#x2044;" horiz-adv-x="737" 
d="M-373 -129q0 14 17.5 51.5t70 159.5t101.5 223l868 1798h2q55 0 55 -32q0 -19 -16 -35q0 -2 1 -2h1q-12 -30 -70.5 -178.5t-128.5 -290.5q-393 -791 -614 -1278l-188 -414q-18 -35 -58.5 -35t-40.5 33z" />
    <glyph glyph-name="foursuperior" unicode="&#x2074;" horiz-adv-x="674" 
d="M195 1403q0 28 59 111q172 246 262 387q13 8 29 8q35 0 35 -37q0 -20 -27.5 -55.5t-116.5 -171.5t-129 -191q53 9 110 15.5t105 15.5q40 54 126 295q13 35 20 57t14 31.5t23 9.5q40 0 40 -29q-38 -153 -108 -328.5t-114.5 -283t-94.5 -240.5q-22 -57 -59 -57
q-31 0 -35 43q26 82 86.5 221.5t79.5 200.5q-29 -5 -61 -12t-87 -17t-106 -10t-51 37z" />
    <glyph glyph-name="Euro" unicode="&#x20ac;" horiz-adv-x="1049" 
d="M723 1114l-275 14q-95 0 -159 -4q-25 -117 -35 -190q64 6 115.5 6t144 -7.5t173.5 -26t81 -46.5q0 -22 -18.5 -39.5t-44.5 -17.5q-22 4 -295 45h-41q-80 0 -131 -8q-27 -187 -27 -306q0 -231 81 -372.5t223 -141.5t249 93q34 29 59 65q21 17 41 17q37 0 37 -33t-53 -86
q-146 -146 -281 -146q-185 0 -244 39t-90 80.5t-49 89t-28.5 100t-23.5 102.5t-13 180.5t24 301.5q-71 -17 -108.5 -32t-48.5 -15q-33 0 -33 35q0 72 205 109q22 126 37 196q-131 -20 -168 -59q-21 -13 -35 -13q-37 0 -37 37q0 99 262 129q163 641 549 785q64 22 147 22
l156 -6q35 -9 35 -35q0 -18 -14.5 -35.5t-34.5 -23.5l-156 8q-161 0 -301 -133q-187 -179 -287 -571q68 4 181 4t201.5 -10t88.5 -44q0 -20 -18 -38.5t-41 -18.5z" />
    <glyph glyph-name="uni2116" unicode="&#x2116;" horiz-adv-x="2046" 
d="M438 1970q23 33 55.5 33t32.5 -39v-6q10 -10 15 -34t22 -97t43 -173q83 -326 186.5 -726t116.5 -490v-4q26 -115 78 -241q43 381 167.5 934.5t176.5 838.5q8 22 30 35.5t41 13.5t21 -12t2 -37q-216 -1039 -275.5 -1396.5t-73 -449t-17.5 -102.5q-15 -41 -51.5 -41
t-94 139.5t-102.5 351.5t-153 617t-150 629q-19 -132 -78 -360.5t-83.5 -358t-51 -249t-54 -235t-56 -234.5t-58.5 -257q-20 -40 -57 -40q-31 0 -35 40q56 257 110 501t86.5 409.5t50 247t34 157.5t53.5 243t69 392zM1970 1964q189 0 189 -287q0 -145 -90 -392.5
t-237 -338.5q-56 -35 -120 -35q-113 0 -162 88.5t-49 194.5q0 188 62.5 363t170 291t236.5 116zM1701 1633q-108 -216 -108 -423q0 -141 80 -191q24 -15 59 -15q78 0 177 184q149 280 149 504q0 92 -13.5 123t-31 43t-58 12t-88.5 -32q-94 -61 -166 -205zM1434 737
q-43 4 -43 39t51 53v2h2q37 13 84 13h63q97 0 377 -40q51 -6 51 -38q0 -22 -18.5 -39.5t-44.5 -17.5q-51 5 -99 12t-126.5 17t-154 10t-106.5 -11h-36zM1784 535l-98 2l-244 2q-43 4 -43 34q0 19 16 38t41 22l244 -2q90 0 182 4q35 -9 35 -37q0 -63 -133 -63z" />
    <glyph glyph-name="minus" unicode="&#x2212;" horiz-adv-x="870" 
d="M127 547q-37 0 -37 38q0 32 35 49t87 17t130.5 -10t169 -10t205.5 31h12q19 0 28 -9.5t9 -21.5q0 -96 -408 -96q-95 0 -125 14l-57 2l-39 -6q-4 0 -4 2h-6z" />
    <glyph glyph-name="noBreak" horiz-adv-x="0" 
 />
    <glyph glyph-name="foundryicon" horiz-adv-x="3568" 
d="M795 184q-64 -180 -248 -180q-136 0 -234.5 86.5t-145 224.5t-46.5 279q0 602 303 868q136 -30 191 -71q118 -87 118 -256q0 -133 -129 -246q-8 -6 -11.5 -10t-7.5 -3.5t-4 7t3.5 20.5t3.5 68t-20 135.5t-44 112.5q-55 -53 -95 -231.5t-40 -369t40 -335.5t124 -205
q119 39 203 221q-37 121 -37 290.5t39 241.5l40 -8q102 -20 154 -67q-6 -104 -6 -210q0 -242 53 -411q66 17 66 294q0 157 -22.5 298.5t-28.5 181.5l17 1q84 0 176 -60q27 -17 46 -37q23 -201 23 -357q0 -620 -204 -883q-105 -136 -258 -136t-177 129q-8 43 -8 109t30 171
q128 0 203 -75q-14 -104 -14 -162t10 -98q112 72 155 221q20 70 30 155l22 187q-23 -37 -61 -37q-138 0 -209 147zM1892 795q-18 -101 -18 -188.5t10 -143.5q-33 -10 -66 -10q-111 0 -130 133q-9 -22 -47.5 -83t-49.5 -104q0 -174 -20.5 -240.5t-53 -100.5t-89.5 -34
q-14 0 -29 3q-6 91 -12 201q-24 431 -101 622q132 -6 182 -35q20 -12 37 -31q56 -102 66 -241q74 140 96 205q0 69 31 131q154 -14 194 -84zM2646 256q-32 139 -32 258.5t3 155.5q-54 -67 -79 -270q-8 -60 -8 -137.5t22 -149.5q55 42 82 101q10 21 12 42zM3154 535
q75 106 98 345q6 68 6 142.5t-12 136.5q-77 -317 -92 -624zM2177 690q-55 -167 -55 -375q64 8 84 151q6 39 6 98t-35 126zM2279 1370q34 25 70.5 25t56.5 -13l35 13q2 0 2 -0.5t1 -0.5h1q-1 -1 -2 -1l-8 -39h35l1 -2h-1l-29 -35q-15 -31 -31 -71t-48 -112t-91.5 -140
t-146.5 -83q51 -102 55 -106q119 -58 119 -234q0 -113 -33 -181t-65 -101.5t-74 -46.5q11 -45 24.5 -83t42.5 -57q88 35 152 195v109q9 250 133 385q73 0 145 -27q3 7 19 71t27 74q9 3 31 3t72 -20.5t77 -45.5q-29 -205 -29 -409.5t39 -340.5q2 -1 11 -1t23.5 14t27 33
t23 38.5t17.5 30.5l-6 29q-37 177 -37 336q0 538 168 843q176 -29 240.5 -116t64.5 -278t-63 -364.5t-170 -222.5q0 -216 86 -342q130 99 190 346q10 5 20.5 5t10.5 -17l-1 -45q0 -72 -22.5 -160t-79.5 -148.5t-151 -60.5q-148 0 -221 125q-21 -83 -86 -115q-22 -10 -61 -10
t-84 39.5t-66 87.5q-10 -41 -52.5 -71.5t-84.5 -34.5q-80 0 -124.5 35.5t-59.5 91.5q-72 -117 -185 -127q-140 0 -207.5 97t-67.5 271t50 339q16 52 37 87q18 2 36 2t36 -2q-21 40 -33 82q-134 30 -291 217q-19 16 -106.5 33t-118.5 45q-7 6 -7 13.5t11 7.5q5 -11 139.5 -19
t144.5 -8q74 14 235.5 43.5t186.5 54.5q13 45 47 70zM2148 817q-28 38 -51 92h-31l25 -80q15 -3 29 -5t28 -7z" />
    <glyph glyph-name="uni0412.alt" horiz-adv-x="1053" 
d="M147 995q0 49 111 49q45 191 80 415t90 399q-37 -16 -68 -43q-18 -37 -53 -37q-9 0 -22 8.5t-13 32.5q0 47 60 83.5t137 51.5q13 21 31.5 21t31.5 -17q190 -6 305 -130.5t115 -332.5q0 -170 -125.5 -314t-281.5 -165q174 -11 305 -152.5t131 -293.5q0 -292 -223.5 -439
t-605.5 -147l-43 2q-7 -29 -7 -49q-5 -26 -22.5 -43t-33.5 -17q-35 0 -40 41q4 32 14 82q-184 43 -320 150q-163 129 -163 299q0 103 41 145q15 16 33 16q37 0 37 -37q0 -27 -8.5 -53t-8.5 -51q0 -140 119.5 -239t290.5 -136l53 223q31 158 69.5 317.5t76.5 323.5l-62 3
q-31 0 -31 34zM127 80q27 -4 80 -4q327 0 503.5 131t176.5 350q0 153 -140 273t-311 120q-44 0 -108 4q-97 -421 -121.5 -536t-31.5 -141.5t-15 -58.5l-17 -68q-9 -36 -16 -70zM757.5 1772q-94.5 94 -245.5 98q-50 -165 -96.5 -446.5t-67.5 -376.5q211 14 357.5 138.5
t146.5 308.5t-94.5 278z" />
    <glyph glyph-name="uni043A.alt" horiz-adv-x="813" 
d="M1409 -180q37 0 37 -33q0 -64 -105.5 -128.5t-291.5 -64.5q-283 0 -515 392q-161 271 -225 549q-16 -26 -45 -78l-24 -47q-33 -158 -64 -373q-3 -25 -22 -41t-35 -16q-33 0 -37 43q25 138 70 408t68 379t32 185q6 20 23.5 34.5t35.5 14.5q26 0 35 -34q0 -42 -8 -78
t-22 -119t-33 -180q222 312 388 393q37 18 72.5 18t78 -51.5t42.5 -88t-16.5 -53.5t-37.5 -17t-33.5 18t-22 39t-18 39t-18.5 18q-56 0 -173 -124.5t-160 -180.5q25 -174 133 -414q179 -397 404 -507q62 -31 163 -31t168 24t115 88q19 17 41 17z" />
    <glyph glyph-name="k.alt" horiz-adv-x="750" 
d="M503 1974q69 0 69 -66q0 -35 -61.5 -321t-79 -368.5t-32.5 -151.5t-24 -111q84 88 166 88t112.5 -56.5t30.5 -125.5q0 -126 -112 -234q-68 -68 -265 -188q198 -466 401 -636q141 -119 299.5 -119t290.5 71q10 4 20 4t22 -13.5t12 -30.5q0 -34 -69 -66q-131 -62 -298 -62
t-317.5 125t-256.5 301.5t-171 354.5q-7 -56 -24 -136l-28 -128q-11 -48 -17 -78q-10 -52 -48 -52q-31 0 -44 11t-13 18v8q0 58 92.5 447t115.5 491q115 493 176 852q29 172 53 172zM518 950q-78 0 -134.5 -69.5t-82.5 -211.5q-5 -29 -19 -93l-14 -72q11 7 38.5 23t88.5 58
t123 113.5t62 161.5t-62 90z" />
    <glyph glyph-name="B.alt" horiz-adv-x="1053" 
d="M147 995q0 49 111 49q45 191 80 415t90 399q-37 -16 -68 -43q-18 -37 -53 -37q-9 0 -22 8.5t-13 32.5q0 47 60 83.5t137 51.5q13 21 31.5 21t31.5 -17q190 -6 305 -130.5t115 -332.5q0 -170 -125.5 -314t-281.5 -165q174 -11 305 -152.5t131 -293.5q0 -292 -223.5 -439
t-605.5 -147l-43 2q-7 -29 -7 -49q-5 -26 -22.5 -43t-33.5 -17q-35 0 -40 41q4 32 14 82q-184 43 -320 150q-163 129 -163 299q0 103 41 145q15 16 33 16q37 0 37 -37q0 -27 -8.5 -53t-8.5 -51q0 -140 119.5 -239t290.5 -136l53 223q31 158 69.5 317.5t76.5 323.5l-62 3
q-31 0 -31 34zM127 80q27 -4 80 -4q327 0 503.5 131t176.5 350q0 153 -140 273t-311 120q-44 0 -108 4q-97 -421 -121.5 -536t-31.5 -141.5t-15 -58.5l-17 -68q-9 -36 -16 -70zM757.5 1772q-94.5 94 -245.5 98q-50 -165 -96.5 -446.5t-67.5 -376.5q211 14 357.5 138.5
t146.5 308.5t-94.5 278z" />
    <glyph glyph-name="D.alt" horiz-adv-x="1370" 
d="M-489 469q5 68 32 68q34 0 45 -25q36 -91 71.5 -167t86.5 -133q109 -122 313 -140q228 1122 443 1763q-125 -42 -226 -106q-13 -5 -22 -5q-35 0 -35 37q0 30 25 47q149 92 297 134q19 26 39.5 26t27.5 -10q96 22 215.5 22t222.5 -51q291 -145 291 -643q0 -575 -287 -926
q-199 -242 -526 -334q-166 -46 -368 -46h-13q-7 -67 -32 -85q-11 -8 -29 -8q-39 0 -39 41q0 20 4 58q-284 33 -437 270q-57 88 -99 213zM1241 1262q0 620 -467 620q-96 0 -174 -20q-205 -643 -448 -1794h6q358 0 602 161.5t362.5 432.5t118.5 600z" />
  </font>
</defs>
</svg>
