<?xml version="1.0" standalone="no"?>
<!DOCTYPE svg PUBLIC "-//W3C//DTD SVG 1.1//EN" "http://www.w3.org/Graphics/SVG/1.1/DTD/svg11.dtd" >
<svg xmlns="http://www.w3.org/2000/svg" xmlns:xlink="http://www.w3.org/1999/xlink" version="1.1">
<metadata>
Created by FontForge 20170731 at Wed Jul 19 01:19:05 2006
 By Aleksey,,,
\(g\)\252 font\2511998
</metadata>
<defs>
<font id="Normograf-Regular" horiz-adv-x="530" >
  <font-face 
    font-family="Normograf"
    font-weight="400"
    font-stretch="normal"
    units-per-em="1000"
    panose-1="2 0 5 6 2 0 0 2 0 4"
    ascent="800"
    descent="-200"
    x-height="392"
    cap-height="593"
    bbox="-35 -250 817 858"
    underline-thickness="20"
    underline-position="-220"
    unicode-range="U+0020-FB02"
  />
<missing-glyph horiz-adv-x="1000" 
 />
    <glyph glyph-name=".notdef" horiz-adv-x="1000" 
 />
    <glyph glyph-name=".null" horiz-adv-x="0" 
 />
    <glyph glyph-name="nonmarkingreturn" horiz-adv-x="271" 
 />
    <glyph glyph-name="space" unicode=" " horiz-adv-x="271" 
 />
    <glyph glyph-name="exclam" unicode="!" horiz-adv-x="251" 
d="M179 70q0 -6 -2 -13.5t-4.5 -14.5t-4.5 -12t-3 -5q-14 -5 -25.5 -11t-25.5 -14q-6 1 -12 10t-11 20.5t-8 23.5t-3 19q0 16 9.5 24.5t23.5 8.5q4 0 6 -2q2 1 6 3.5t6 2.5q15 0 31.5 -11t16.5 -29zM170 339q0 -6 -0.5 -15.5t-3 -18.5t-6.5 -15t-11 -6q-3 0 -9 1.5t-7 3.5
h-29q-8 0 -14.5 9t-6.5 17q0 9 3 20.5t3 17.5v35q0 3 -3 13.5t-4 11.5q0 3 0.5 7.5t-2.5 6.5v24q0 2 0.5 0.5t0.5 0.5v22q0 9 4.5 23.5t5.5 16.5v20l-19 117v24q0 2 1.5 11t6.5 15q4 5 12.5 8t16.5 5q10 3 21 4q9 0 15 -5.5t9.5 -13t4.5 -16t1 -14.5q0 -3 -1 -5t-1 -3v-38
q0 -2 -1 -1t-1 0v-47q0 -2 -0.5 -1t-0.5 0v-182q0 -3 2.5 -10t5 -14.5l5 -15t2.5 -13.5z" />
    <glyph glyph-name="quotedbl" unicode="&#x22;" horiz-adv-x="309" 
d="M243 686q4 -3 4.5 -3.5t0.5 -1.5v-2.5t2 -4.5q6 -10 4.5 -18t-5 -16.5t-6 -19t0.5 -25.5q-2 -8 -5.5 -16t-1.5 -18q0 -5 -1.5 -14t-2.5 -17q0 -2 1.5 -12t3 -21t2 -21.5t-1.5 -13.5q-3 -5 -5 -6t-10 -4q-12 5 -20 10q-1 0 -9.5 2t-9.5 2q-10 8 -6.5 19t4.5 18
q0 7 -0.5 15t0.5 16q2 17 0.5 21t1.5 13q5 12 10 25t4 30q-1 10 -7 27t2 32q0 1 -1 2t-2 1q2 1 8.5 2.5t15 2t17 0t12.5 -3.5zM121 686q4 -3 4.5 -3.5t0.5 -1.5v-2.5t2 -4.5q6 -10 4.5 -18t-5 -16.5t-6 -19t0.5 -25.5q-2 -8 -5 -16t-2 -18q0 -5 -1.5 -14t-1.5 -17
q0 -2 1 -12t2.5 -21t2 -21.5t-1.5 -13.5q-3 -5 -5 -6t-10 -4q-12 5 -20 10q-1 0 -9.5 2t-9.5 2q-10 8 -6.5 19t4.5 18q0 7 -0.5 15t0.5 16q2 17 0.5 21t1.5 13q5 12 10 25t4 30q-1 10 -7 27t2 32q0 1 -1 2t-2 1q2 1 9 2.5t15 2t16.5 0t12.5 -3.5z" />
    <glyph glyph-name="percent" unicode="%" horiz-adv-x="714" 
d="M198 505q1 2 0.5 4t-0.5 4q-1 6 -2 10t-6 8q-5 5 -11 5t-13 -2q-10 -2 -19 -6.5t-7 -14.5q1 -8 9 -12.5t16 -2.5q5 1 7.5 5t7.5 5t10.5 -3.5t7.5 0.5zM257 467q0 -8 -6.5 -24.5t-16.5 -32.5t-21 -27t-19 -8q-2 1 -6 0.5t-7 -3.5h-29q-2 0 -8.5 2.5t-8.5 2.5q-4 3 -10 7
t-8 9q-5 8 -12.5 12.5t-15.5 12.5q-2 5 -3 12t-1 9t1 2t1 2v28q0 2 0.5 1t0.5 1v35q0 29 20.5 52t53.5 23q2 0 8 -2.5t14 -5.5t17 -5.5t16 -2.5q4 0 7 1t5 1q10 0 15 -10t7.5 -22t3.5 -22.5t2 -11.5v-36zM569 525q0 -11 -3 -16.5t-8 -13.5q-3 -4 -13.5 -18.5t-24 -31.5
t-27.5 -33t-23 -23q-6 -1 -13 -8.5t-13.5 -17t-12.5 -19t-10 -16.5q-8 -12 -18.5 -28t-20.5 -30q-5 -8 -14.5 -21t-17.5 -22q-5 -7 -14.5 -17t-15.5 -19q-15 -22 -22 -33t-10 -17t-4.5 -10.5l-4.5 -13.5q-11 -26 -15 -41t-6.5 -24t-7 -16.5t-15.5 -18.5q-2 -2 -5.5 -7
t-8.5 -5q-7 0 -19.5 6t-25 14.5t-21.5 18.5t-9 18q0 5 3 13t7 11q17 15 18.5 32t9.5 35q1 3 5.5 8t10.5 11t12 13t10 13q32 53 78 110t95 108q0 2 5 14.5t13 30.5t19 38.5t23.5 38t26 29t27.5 11.5q9 0 17.5 -3.5t22.5 -7.5q5 -2 6.5 -9t3.5 -10l4.5 -7.5t3 -4t2 -4
t0.5 -7.5zM608 107q1 4 0.5 6.5t-1.5 6.5q-1 10 -7 20q-2 5 -4 9.5t-7 4.5q-9 0 -12 -8q-1 -3 1 -5.5t5 -4.5l6 -4t4 -6q2 -8 -1 -6.5t-4 -1.5q-3 -8 0 -14q5 -8 12 -7q6 1 8 10zM629 125q0 -2 -0.5 -1t-1.5 0v-27q0 -2 0 -1t-1 0v-31q0 -12 -8 -22.5t-20 -18.5t-25 -12.5
t-23 -3.5q-3 -2 -9 -5t-14 -3q-10 0 -15 3.5t-8 5.5q-2 4 -6 6.5t-8 5.5l-6 6t-6 9q-3 5 -6.5 13t-7.5 18t-7.5 20.5t-5.5 18.5v27q0 3 4 12t5 11q3 5 10.5 12t12.5 14q3 5 6.5 13.5t11.5 13.5q10 6 25.5 8.5t22.5 2.5q2 0 13.5 -2.5t16.5 -3.5q9 -6 21 -17t23 -20
q4 -4 6 -12v-40z" />
    <glyph glyph-name="ampersand" unicode="&#x26;" horiz-adv-x="533" 
d="M334 83q2 8 -2 12q-12 18 -26.5 30t-27.5 24t-22.5 26t-11.5 36q-1 13 -9 15.5t-18 2.5q-9 0 -22 -2.5t-25 -8t-20.5 -13.5t-8.5 -20v-26q8 -27 17 -52.5t29 -34.5h29q12 -5 22 -9.5t21 -4.5q17 0 26 5.5t18 10.5q9 4 18 5t13 4zM286 426q0 2 -1 10.5t-3 19.5t-4 21
t-5 14q-2 3 -9 6t-16 3q-8 0 -18 -2t-18.5 -6.5t-14 -11.5t-5.5 -17v-26q2 -1 4 -10t6.5 -19t11 -18t15.5 -8q8 0 17.5 3t18.5 8.5t15 13.5t6 19zM482 163q0 -12 -9.5 -22.5t-21.5 -15.5h-23q-1 -2 -2 -2.5t-1 -2.5q0 -4 6.5 -12t15 -18t15 -21t6.5 -20q0 -12 -11 -23.5
t-21 -11.5q-9 0 -17.5 8t-16.5 17.5t-17.5 17.5t-20.5 8q-5 0 -13 -7.5t-15.5 -16t-13 -16l-5.5 -7.5q-5 -7 -11 -7.5t-8 -3.5h-29q-9 -1 -17 -3q-7 -2 -12.5 -3t-7.5 -1q-18 0 -33 9t-28.5 20t-25.5 19.5t-25 8.5q-1 2 -9 15.5t-17 32t-16.5 38t-7.5 33.5q0 6 3 17t5 13
q4 5 9.5 11t7.5 13q8 25 29 35l3 3q10 5 25.5 10t20.5 21q8 2 11 3t3 8q0 5 -4.5 12t-6.5 10q-5 12 -14 18t-17.5 12t-15 13.5t-6.5 20.5v8.5t-3 8.5v32q0 2 0.5 1t0.5 1v41q0 10 2.5 13.5t6 5t8.5 4t10 11.5q7 10 14.5 21t15.5 20t18 14.5t21 5.5q5 0 9.5 -3.5t8.5 -4.5
q5 -1 12 -2.5t12 -3.5h34q11 0 17.5 -4.5t11 -11.5t8 -15t7.5 -14q5 -8 15 -18t18 -20q2 -2 5 -12t3 -18q0 -9 -4.5 -26t-10.5 -34t-11.5 -30t-7.5 -15q-4 -6 -10.5 -14t-14.5 -14q-1 -1 -5 -3.5t-8 -6t-7.5 -7.5t-3.5 -8q0 -7 7 -19q4 -6 7 -13q8 -18 14 -37t14 -36
q2 -3 6.5 -4.5t8.5 -1.5q6 0 15 1.5t18 4t15.5 4.5l6.5 2q8 7 12 13t15 12q4 0 12 -6.5t16 -15.5t14 -19.5t6 -19.5z" />
    <glyph glyph-name="quotesingle" unicode="'" horiz-adv-x="187" 
d="M121 686q4 -3 4.5 -3.5t0.5 -1.5v-2.5t2 -4.5q6 -10 4.5 -18t-5 -16.5t-6 -19t0.5 -25.5q-2 -8 -5 -16t-2 -18q0 -5 -1.5 -14t-1.5 -17q0 -2 1 -12t2.5 -21t2 -21.5t-1.5 -13.5q-3 -5 -5 -6t-10 -4q-12 5 -20 10q-1 0 -9.5 2t-9.5 2q-10 8 -6.5 19t4.5 18q0 7 -0.5 15
t0.5 16q2 17 0.5 21t1.5 13q5 12 10 25t4 30q-1 10 -7 27t2 32q0 1 -1 2t-2 1q2 1 9 2.5t15 2t16.5 0t12.5 -3.5z" />
    <glyph glyph-name="parenleft" unicode="(" horiz-adv-x="282" 
d="M205 42q0 -18 -15 -30t-31 -12q-10 0 -15 3t-9 8q-3 4 -10.5 15t-16.5 26t-18 31.5t-15 29.5q-4 8 -7 21t-5.5 28.5t-4.5 31.5t-4 31v22q0 2 -1 1t-1 1v25q0 2 -1 0.5t-1 0.5v22q0 3 -2 19t-5 27v72q0 2 1 0.5t1 0.5v22q0 6 2.5 20t5.5 30t6.5 30.5t5.5 19.5q1 2 6 10
t10.5 18t10 20.5t4.5 17.5v22q0 11 10 21.5t15 12.5h22q5 0 13.5 -3t17 -8.5t15 -12t6.5 -13.5q0 -6 -4.5 -13.5t-10.5 -16t-12 -16t-10 -13.5q-8 -13 -16 -32.5t-14 -41.5t-10 -44.5t-4 -42.5v-23q0 -2 -0.5 -1t-1.5 0v-27q0 -2 -0.5 -1t-1.5 0v-48l-2 -7q0 -7 2 -8v-31
q0 -3 2 -9t4.5 -12.5t5 -12t2.5 -7.5q8 -26 14.5 -55.5t24.5 -57.5q4 -5 3 -14.5t6 -14.5q15 1 24 -9.5t9 -22.5z" />
    <glyph glyph-name="parenright" unicode=")" horiz-adv-x="310" 
d="M205 343q-3 -11 -5 -27t-2 -19v-22q0 -2 -1 -0.5t-1 -0.5v-25q0 -2 -1 -1t-1 -1v-22q-2 -15 -4 -31t-4.5 -31.5t-5.5 -28.5t-7 -21q-6 -13 -15 -29.5t-18 -31.5t-16.5 -26t-10.5 -15q-4 -5 -9 -8t-15 -3q-16 0 -31 12t-15 30q0 12 9 22.5t24 9.5q7 5 6 14.5t3 14.5
q18 28 24.5 57.5t14.5 55.5q0 2 2.5 7.5t5 12t4.5 12.5t2 9v31q2 1 2 8l-2 7v48q-1 1 -1.5 0t-0.5 1v27q-1 1 -1.5 0t-0.5 1v23q0 20 -4 42.5t-10 44.5t-14 41.5t-16 32.5q-4 6 -10 13.5t-12 16t-10.5 16t-4.5 13.5q0 7 6.5 13.5t15 12t17.5 8.5t13 3h22q5 -2 15 -12.5
t10 -21.5v-22q0 -7 4.5 -17.5t10 -20.5t10.5 -18t6 -10q2 -5 5.5 -19.5t6.5 -30.5t5.5 -30t2.5 -20v-22q0 -2 1 -0.5t1 -0.5v-72z" />
    <glyph glyph-name="plus" unicode="+" horiz-adv-x="512" 
d="M411 273q0 -5 -5 -11.5t-9 -6.5q-2 0 -4.5 0.5t-4.5 0.5h-8t-8 -3h-41q-4 0 -14 3.5t-15 6.5q-7 -12 -8 -12.5t-1 -8.5q0 -3 1.5 -13t4 -21t4 -22t1.5 -17q0 -7 -2.5 -15.5t-7.5 -11.5q-13 0 -28 -5h-22q-2 0 -6 1.5t-8 3.5q-4 26 -7.5 41.5t-6 26.5t-4 21t-2.5 25
q-5 1 -10.5 1t-8.5 -2h-31q-2 0 -1 0.5t-1 0.5h-23q-19 0 -32.5 12.5t-13.5 32.5q0 6 2.5 15t7 18t11.5 15t17 6q1 0 6.5 -1.5t12.5 -3.5t14.5 -4t11.5 -3h29q8 0 9.5 2t1.5 8q0 7 -2 8v39q0 1 -0.5 5t-0.5 6t0.5 6.5t0.5 5.5v25q2 4 8 5.5t10 3.5h26q13 0 27 -6.5t17 -13.5
v-50q0 -2 0 -1t-1 0v-32q4 -4 7 -7.5t6 -7.5h57q11 0 23 -5t16 -10q1 -6 2 -12.5t3 -15.5v-23z" />
    <glyph glyph-name="comma" unicode="," horiz-adv-x="428" 
d="M328 91q0 -1 -4.5 -20t-11.5 -45t-14 -53t-12 -43q-2 -7 -7.5 -19.5t-10.5 -22.5q-4 -7 -12 -18t-18 -17q-6 0 -12 -4q-3 2 -7 2.5t-8 1.5q-11 11 -12.5 15t-2 7t-4.5 8t-20 19v7q0 3 2.5 12.5t5.5 21.5t6 22.5t5 14.5q1 3 6.5 26t16 49t26 47.5t36.5 21.5q5 0 14 -2.5
t17.5 -7t14.5 -10.5t6 -13z" />
    <glyph glyph-name="hyphen" unicode="-" horiz-adv-x="498" 
d="M431 328q0 -1 -1 -4l-2 -6q-9 -15 -22 -17t-24 -5h-32q-2 0 -1 1t-1 1h-29q-8 0 -18 2.5t-18 2.5q-1 0 -1 -2h-144q-2 0 -1 -0.5t-1 -0.5h-23q-2 0 -4.5 -1t-4.5 -1q-21 0 -28 14.5t-7 31.5t8 33t27 16q5 0 11.5 -2t8.5 -3q5 -1 9.5 -0.5t7.5 -1.5h157q2 0 1 1t1 1h39
q2 0 1 0.5t1 0.5h21q8 0 20.5 3.5t21.5 3.5q10 0 16 -3.5t11 -17.5v-47z" />
    <glyph glyph-name="hyphen" unicode="&#xad;" horiz-adv-x="498" 
d="M431 328q0 -1 -1 -4l-2 -6q-9 -15 -22 -17t-24 -5h-32q-2 0 -1 1t-1 1h-29q-8 0 -18 2.5t-18 2.5q-1 0 -1 -2h-144q-2 0 -1 -0.5t-1 -0.5h-23q-2 0 -4.5 -1t-4.5 -1q-21 0 -28 14.5t-7 31.5t8 33t27 16q5 0 11.5 -2t8.5 -3q5 -1 9.5 -0.5t7.5 -1.5h157q2 0 1 1t1 1h39
q2 0 1 0.5t1 0.5h21q8 0 20.5 3.5t21.5 3.5q10 0 16 -3.5t11 -17.5v-47z" />
    <glyph glyph-name="period" unicode="." horiz-adv-x="426" 
d="M269 18q-2 -5 -7 -10t-2 -10h-17q-2 0 -1 1t-1 1h-25q-15 0 -25 6t-15.5 15.5t-8 21.5t-2.5 23q0 18 9 36t29 18q2 0 11 -4.5t20 -10.5t21 -11.5t14 -7.5v-68zM247 111l-3 2l1 1q1 0 1 -1z" />
    <glyph glyph-name="slash" unicode="/" horiz-adv-x="714" 
d="M569 525q0 -11 -3 -16.5t-8 -13.5q-3 -4 -13.5 -18.5t-24 -31.5t-27.5 -33t-23 -23q-6 -1 -13 -8.5t-13.5 -17t-12.5 -19t-10 -16.5q-8 -12 -18.5 -28t-20.5 -30q-5 -8 -14.5 -21t-17.5 -22q-5 -7 -14.5 -17t-15.5 -19q-15 -22 -22 -33t-10 -17t-4.5 -10.5l-4.5 -13.5
q-11 -26 -15 -41t-6.5 -24t-7 -16.5t-15.5 -18.5q-2 -2 -5.5 -7t-8.5 -5q-7 0 -19.5 6t-25 14.5t-21.5 18.5t-9 18q0 5 3 13t7 11q17 15 18.5 32t9.5 35q1 3 5.5 8t10.5 11t12 13t10 13q32 53 78 110t95 108q0 2 5 14.5t13 30.5t19 38.5t23.5 38t26 29t27.5 11.5
q9 0 17.5 -3.5t22.5 -7.5q5 -2 6.5 -9t3.5 -10l4.5 -7.5t3 -4t2 -4t0.5 -7.5z" />
    <glyph glyph-name="zero" unicode="0" horiz-adv-x="545" 
d="M385 413q-1 0 -1.5 -1t-0.5 1v33q-2 8 -3 17t-3.5 16.5t-8 12.5t-16.5 4q-4 5 -8.5 11.5t-8 13t-7.5 11t-7 3.5h-28q-2 0 -1 -1t-1 -1h-30q-4 2 -14.5 8t-12.5 6q-4 0 -10.5 -6.5t-16.5 -4.5q-4 -12 -11 -20.5l-14 -17t-12.5 -18t-5.5 -23.5v-56l9 -73v-38q0 -2 -2 -7.5
t-2 -7.5v-25q0 -8 -2.5 -17.5t-2.5 -17.5v-36q3 -8 7 -23.5t9 -20.5q7 -6 16.5 -16t21 -19t24 -15.5t25.5 -6.5q10 0 18.5 3t17.5 6.5t19.5 7.5t23.5 6q6 21 10 37t7 34.5t6.5 42t7.5 58.5q4 23 4.5 30t0.5 10v24q1 1 1 0t0 1v45q1 1 1.5 -0.5t0.5 0.5v30zM449 382
q0 -2 -0.5 -1t-1.5 0v-24l-16 -113v-40q0 -2 -0.5 -1t-1.5 0v-61q0 -8 -2.5 -21t-6.5 -25.5t-8 -22t-6 -10.5t-10 -8t-13 -10q-19 -13 -48 -30q-4 -2 -8 -2t-11 -5h-41q-7 0 -24 5t-34.5 11t-32 12t-16.5 8q-11 11 -21.5 33.5t-27.5 47.5q-2 11 -8 31.5t-10 40.5
q-1 8 -1.5 19t-2.5 11v25q0 2 -1 1t-1 1v56q0 2 1 1t1 1v30q0 2 1 1t1 1v21q0 4 1 12t4 26q3 14 4 34t3 40t6.5 38.5t14.5 30.5q6 20 24.5 35t34.5 22h72q2 0 1 1t1 1h31q2 0 1 1t1 1h20q3 0 3 -2h21q2 0 8 -2.5t11 -2.5q14 -1 24.5 -8.5t17 -18t10 -23.5t4.5 -25
q5 -3 11 -7t11 -7q5 -8 5.5 -19.5t2.5 -20.5v-24q0 -1 2 -1v-64z" />
    <glyph glyph-name="one" unicode="1" horiz-adv-x="380" 
d="M262 548q0 -2 -0.5 -1t-1.5 0v-63q0 -2 0 -1t-1 0v-87q0 -2 -0.5 -1t-1.5 0v-110q0 -2 -0.5 -1t-1.5 0v-108q0 -2 -0.5 -1t-1.5 0v-87q0 -2 0 -1t-1 0v-71q0 -2 -2.5 -8.5t1.5 -7.5h-11q-1 0 -6.5 1.5t-12 3t-12.5 3t-8 1.5q-3 7 -4.5 16.5t-3 20t-2 20t-2.5 15.5v32
q0 2 -1 1t-1 1v48q0 2 1 0.5t1 0.5v41q0 2 1 1t1 1v28q0 2 1 2t1 1v45q0 1 1 0.5t1 1.5v24q0 2 1 0.5t1 0.5v24q0 2 1 0.5t1 0.5v30q0 2 1 1t1 1v95q0 2 -1 5t-1 8q-1 1 -6.5 0.5t-31.5 -0.5q-2 0 -2 -2h-56q-10 0 -16.5 7.5t-6.5 17.5q0 18 8.5 27.5t19.5 16t22.5 13.5
t18.5 20q7 0 12.5 1.5t11.5 6.5q1 2 0.5 6.5t1.5 6.5l8.5 8.5l8.5 8.5q0 5 2 11q2 1 6.5 2t6.5 1q11 0 18 -3t12 -8t10.5 -11.5t14.5 -13.5v-43z" />
    <glyph glyph-name="two" unicode="2" horiz-adv-x="545" 
d="M442 19q0 -4 -4 -8t-9.5 -6.5t-11 -4.5t-8.5 -3h-35q-2 0 -10.5 1.5t-18.5 4l-18 4.5t-10 2h-22q-1 0 -5 1t-6 1h-5.5t-4.5 -2h-31q-2 0 -0.5 -1t-0.5 -1h-25q-2 0 -1 -0.5t-1 -0.5h-55h-12.5t-15.5 5q-1 1 -5.5 6t-9 11.5t-8.5 13t-4 9.5q0 11 1 15.5t3.5 6t6.5 2.5
t10 7q1 2 0.5 4.5t-0.5 5.5h14q2 7 3.5 14.5t4.5 13.5t8.5 10t15.5 2v43q8 -2 14 1t10.5 8.5t9 11.5t9.5 10q11 -1 14 4t3.5 13.5t1.5 18.5t7 19q1 2 6 4t11 5t10.5 7.5t4.5 11.5h24q6 11 16.5 27.5t20 34t17 34t7.5 28.5v29q0 5 -4.5 15t-4.5 15q-9 -3 -14 4t-9 16t-9.5 17
t-14.5 8q-2 0 -7 -1t-7 -1q-8 0 -13.5 8t-2.5 12q-1 1 -5 1h-29q-6 -1 -13 -2t-13 -3t-9 -7t0 -14q-7 -5 -10.5 -12.5t-6 -15t-6 -13t-12.5 -7.5h-25q-17 0 -29 16t-12 33q0 33 15.5 47.5t38 20.5t48 8t46.5 9h56q1 0 6 -1t12 -2t14.5 -2.5t11.5 -3.5q10 -11 23 -23t21 -22
q8 -11 8 -26.5t5 -22.5q2 -4 10 -6t15 -8q-3 -4 -2 -15.5t3 -25.5t4 -29t2 -27q0 -11 -3 -22.5t-9 -20.5t-15.5 -14.5t-23.5 -5.5q-4 -2 -2.5 -8t0.5 -11h-22q-3 -11 -5.5 -16t-5.5 -13q0 -2 0.5 -4t0.5 -4q-16 -8 -22 -23t-15 -23q-6 -5 -17 -5t-16 -8q-4 -6 -4.5 -14.5
t-1.5 -15t-4.5 -11t-13.5 -3.5q2 -5 3 -13t1 -14q0 -7 -2 -12.5t-8 -5.5q-5 0 -10.5 1.5t-12.5 1.5q-6 -6 -6 -11v-24q0 -4 11 -7t12 -3h66q2 -3 3.5 -7t3.5 -6h116q0 -2 -1 -4.5t-1 -4.5q0 -1 1 -5.5t2.5 -10.5t2.5 -10.5t1 -5.5z" />
    <glyph glyph-name="three" unicode="3" horiz-adv-x="545" 
d="M427 167q0 -9 -5 -28.5t-11.5 -40t-12.5 -38t-8 -23.5q-10 4 -20.5 -4.5t-10.5 -22.5q-4 0 -23 -5t-44 -8.5t-50 -2t-41 15.5q-1 5 -1 8t-3 5h-34q-4 4 -13 16v22q-2 1 -5.5 0.5t-6.5 1.5v5.5t-2 5.5v38q0 11 9.5 17t18.5 6t16 -5t13 -12t12.5 -15t13.5 -13t22.5 -7.5
t25.5 -5.5h35q12 0 21 6.5t15 16t9 20.5t3 21v25q0 9 -3.5 21.5t-8 24t-9.5 20.5t-8 13h-25q-1 8 -5 18q-4 12 -11.5 21t-7.5 23t4.5 16.5t8.5 6.5q6 2 12.5 3t12.5 3q8 2 11 4.5t4.5 6t2 7.5t3.5 8q7 10 12 14t5 17v39q0 2 -1 1t-1 1v27q0 2 -0.5 4.5t-0.5 7.5q-4 1 -14 1
q-5 5 -3.5 15.5t-1.5 15.5q-9 -3 -14.5 -0.5t-9.5 7t-7 10t-6 8.5h-56q-21 0 -43 -14.5t-28 -36.5h-22q-2 -4 -2 -12h-21q3 3 0 3v35q0 1 2 10.5t4.5 21t5 22t2.5 13.5q6 4 9 4q4 0 4 -2h23q8 8 15 14.5t24 6.5q1 2 0.5 2.5t-0.5 2.5q4 0 8 1t6 1q6 0 19.5 -2.5t28 -6
t28.5 -7t21 -5.5h31q4 -1 4 -10v-14q5 -5 11.5 -6.5t14 -2t14 -1.5t10.5 -7q6 -20 8.5 -38t4.5 -32v-45q0 -3 -4 -20t-8.5 -38t-8.5 -41t-4 -29v-26q0 -2 5.5 -9.5t7.5 -9.5q4 0 7.5 -0.5t6.5 -0.5q3 -9 5.5 -19t4.5 -20v-45z" />
    <glyph glyph-name="four" unicode="4" horiz-adv-x="545" 
d="M440 83q0 -2 -1 -7.5t-1 -12.5q-7 3 -9.5 -3t-9.5 -6q-2 -6 -0.5 -13t1.5 -13q0 -11 -6 -20.5t-19 -9.5q-9 0 -20.5 6.5t-21 16t-14 20.5t1.5 19q1 2 0.5 8.5t-0.5 11.5q-5 2 -12.5 1t-12.5 -4h-47l-8 -2t-18 -5t-19.5 -5.5t-13.5 -3.5h-26q0 -1 -2 -1t-3 1h-23
q-3 0 -11.5 2t-17 5t-15.5 6t-8 5v28q0 6 3.5 12t3.5 10q11 14 17.5 32t4.5 35q3 4 9 5.5t11 0.5q1 2 3 8t4.5 13t4 13.5t1.5 8.5v38q0 2 -1 0.5t-1 0.5v57q5 11 15 16t18 17q8 22 13.5 43t17.5 45q5 10 13 20t8 24v41q0 2 -1 0.5t-1 0.5v15h41q2 0 5 -2t3 -3q28 -2 39 -6
t11 -27q0 -20 -14 -32t-34 -12q0 -3 -0.5 -8t-0.5 -10q-8 2 -11 -5t-8 -9q-5 -12 -8 -33t-11 -37q-3 -5 -11 -16.5t-12 -22.5q-8 -22 -10.5 -48t-10.5 -58q-5 -19 -10.5 -30t-5.5 -22v-29q0 -9 4 -14.5t10.5 -8.5t13.5 -4t13 -3h24q11 0 23.5 4t24 10.5t19 16.5t7.5 22v34
q0 20 7.5 31t27.5 11q17 0 26.5 -15t14 -34.5t6.5 -38t4 -25.5q2 -5 7.5 -12t8.5 -13v-31z" />
    <glyph glyph-name="five" unicode="5" horiz-adv-x="545" 
d="M460 131q-3 -22 -10.5 -44t-20.5 -40.5t-31 -32t-41 -17.5h-22h-9.5t-10.5 3h-22q-2 0 -1 1t-1 1h-21q-2 0 -1 1t-1 1h-48q-13 0 -32 7.5t-25 15.5q0 4 -1 9t-1 7q0 5 2.5 12.5t5.5 9.5q6 1 11 1t10 3q20 -3 32 -7t22 -7.5t20 -6t25 -2.5q13 0 30 3.5t32 10.5t25.5 18.5
t10.5 26.5v37q0 4 -2.5 11.5t-3.5 9.5q-2 11 -5.5 31t-11.5 33q-2 4 -7.5 7t-9.5 8q-5 6 -7.5 15.5t-10.5 15.5q-29 3 -60 9h-26q-10 0 -20.5 -4.5t-20.5 -10t-19 -10.5t-15 -7h-22q-4 0 -10 3.5t-11.5 7.5t-9.5 8.5t-5 5.5q-2 3 -3.5 8t-3.5 10v24q0 1 2 4t1 6
q-2 2 -6.5 3.5t-6.5 3.5q-2 14 -2.5 34t-5.5 43v25q0 2 -1 1t-1 1v69q0 2 1.5 10.5t3 18t3 18.5t1.5 12h26l152 19h21q2 0 1 1t1 1h52q18 0 27.5 -14.5t9.5 -31.5q0 -15 -7.5 -31.5t-22.5 -16.5q-2 0 -11.5 1t-17.5 1q-2 2 -3 6t-4 8h-39q-2 0 -0.5 1t-0.5 1h-24q-2 0 -1 1
t-1 1h-44q-1 0 -6.5 -1.5t-9.5 -1.5q-23 -2 -29.5 -11.5t-6.5 -27.5q0 -14 4.5 -27t9.5 -27q4 -9 4.5 -24t3.5 -28.5t10 -23.5t25 -10h46q4 0 9.5 1.5t10.5 2.5q6 1 8 0.5t4 -0.5t6.5 0.5t14.5 2.5h56q2 -7 5.5 -11.5t1.5 -13.5q20 -2 36.5 -9t30.5 -24q5 -6 8 -17t5 -23
t3.5 -23.5t3.5 -19.5v-35q0 -2 0.5 -1t0.5 0z" />
    <glyph glyph-name="six" unicode="6" horiz-adv-x="545" 
d="M382 194q-3 14 -5 26.5t-6 20.5t-6.5 11t-8 6.5t-16.5 9l-33 16.5q-5 2 -10.5 7.5t-10.5 8.5q-5 1 -12 4t-14 3h-43q-11 -3 -18 -4t-17 -2q-9 -1 -18.5 -13.5t-9.5 -23.5v-38q3 -4 3 -6.5v-5.5v-8t2 -15q4 -19 6.5 -39t5.5 -37q8 -8 22 -17.5t31.5 -18t35.5 -14.5t34 -6
q31 0 52.5 18.5t28.5 49.5q1 1 4 13.5t3 17.5v36zM449 173q0 -13 -6 -41t-15 -55t-18.5 -46t-17.5 -15h-24q-2 -2 -4 -5t-4 -7h-23q-2 0 -1 -1t-1 -1h-23q-2 0 -1 -1t-1 -1h-33q-11 0 -21.5 4.5t-20 10t-17 11t-12.5 8.5q-8 5 -20 11t-23 12q-5 3 -13 10.5t-14 12.5
q-12 11 -18.5 26.5t-10.5 32t-6 32.5t-4 29v25q0 2 -1 1t-1 1v72q0 2 1 1t1 1v28q0 2 1 1t1 1v21q0 2 1.5 17.5t3.5 35.5t4.5 39t4.5 28q2 6 8 16.5t8 18.5t4 17.5t7 17.5q3 5 11.5 16.5t9.5 16.5h27q2 0 10 2.5t18.5 6t20 6.5t13.5 4q2 5 0 12h15q2 0 0.5 -0.5t0.5 -0.5h25
q2 0 1 -1t1 -1h23q16 0 33 -4t31 -13t23 -22.5t9 -31.5q0 -12 -7.5 -25t-21.5 -13q-6 0 -13.5 3.5t-14.5 8.5t-13.5 10t-10.5 8q5 12 0.5 17t-12 7t-16 2.5t-12.5 3.5h-29q-10 0 -26 -10t-31 -25t-26 -31t-11 -28v-40q0 -3 2 -12.5t4.5 -20.5t4.5 -20.5t3 -12.5h36
q1 2 1 4.5v4.5q4 2 5 4h74q4 0 15 -5t16 -7q11 -4 31 -4.5t34 -8.5q7 -11 10 -19t14 -19q8 -2 15.5 -5.5t12.5 -9.5q1 -4 1 -11t2 -10v-95z" />
    <glyph glyph-name="seven" unicode="7" horiz-adv-x="545" 
d="M461 560q0 -13 -3.5 -28.5t-8.5 -29.5t-10.5 -24.5t-9.5 -14.5q-21 -22 -33 -43t-20.5 -42t-15.5 -42.5t-17 -46.5q-1 -2 -5.5 -8t-10 -14t-10.5 -16.5t-7 -15.5q-5 -31 -9 -54t-9 -41t-13 -33.5t-21 -32.5q-2 -4 -8 -4.5t-11 -3.5q-5 -4 -6 -14.5t2 -17.5v-22
q-6 -11 -16.5 -14.5t-20.5 -3.5q-16 0 -29.5 10.5t-13.5 27.5q0 12 6.5 23.5t15 20.5t15 14.5t6.5 6.5v23q0 1 -1 5.5t-1 5.5q0 9 4 12.5t8.5 5t8.5 3.5t5 8q7 37 15 72.5t23 67.5q3 5 9 13.5t8 15.5q3 7 5.5 19.5t6 27t10 28.5t16.5 23q10 8 16.5 13t6.5 21q0 17 -6.5 33
t-8.5 19q-5 7 -7 10t-3.5 4t-3.5 1.5t-5 2.5h-32q-2 0 -1 -0.5t-1 -0.5h-33q-2 0 -6.5 1t-9.5 2.5t-9 2.5t-5 1q-2 0 -8.5 -2.5t-7.5 -3.5q-1 -9 -4 -14.5t-6 -10.5t-5.5 -10t-2.5 -13q0 -3 1.5 -5t1.5 -9q0 -5 0.5 -6.5t-5.5 -4.5q-6 -4 -14 -8t-13 -12q-1 -2 -3 -2.5
t-4 -2.5q-2 0 -4 -1t-4 -1q-9 0 -17 7.5t-10 9.5q-5 4 -8.5 2.5t-6.5 3.5q-2 4 -3 10.5t-1 8.5t1 13t3 18q12 22 23 43t19 28h31q2 0 6.5 4.5t6.5 7.5q3 1 9 0.5t7 1.5h27q2 0 1 1t1 1h30q2 0 1 1t1 1h98q11 0 27.5 -2.5t33 -5.5t30 -6t16.5 -4q2 -2 4 -7.5t2 -7.5z" />
    <glyph glyph-name="eight" unicode="8" horiz-adv-x="545" 
d="M384 205l-2 8l-2 8q-9 8 -21 17.5t-29 15.5q0 11 -1 16q-1 2 -8 4.5t-16 5t-16.5 4t-8.5 1.5h-4q0 -5 -3 -10.5t-7 -7.5q-2 2 -5.5 3t-4.5 1h-27q-2 -2 -5.5 -2t-5.5 -2q-5 -8 -15.5 -13.5t-21.5 -11.5t-19.5 -15t-8.5 -24v-23q0 -2 -1 -1t-1 -1v-52q5 -5 10.5 -11
t10.5 -5q-5 -7 2 -12.5t7 -10.5q0 -2 -0.5 -3t-0.5 -3q9 -1 26 -5.5t34 -9.5t31 -8.5t17 -3.5h29q6 4 9 3q8 -3 18 8.5t19 28t15 35t6 29.5v47zM384 464q-3 12 -9.5 22.5t-16 19.5t-20.5 15t-22 7q-3 1 -2.5 6t2.5 6q-6 4 -8 4.5t-7 0.5t-7.5 -2.5t-4 -6t-2.5 -6t-3 -2.5
t-3 1t-3 1q-19 0 -31 -11.5t-19.5 -28t-12 -34t-8.5 -28.5q4 -5 6 -14.5t4.5 -20t5.5 -20.5t9 -16q3 -2 17 -9t22 -7h44q2 3 6 3.5t6 -0.5q11 -1 21 7t18 21t13 27.5t5 24.5v40zM457 433q0 -5 -2 -14t-4.5 -18t-5 -17t-3.5 -11q-2 2 -7 2q-6 0 -9.5 -10.5t-6.5 -15.5
q-1 -2 -5 -7.5t-8.5 -12t-8.5 -13t-4 -9.5q0 -5 6 -7.5t14 -8t17.5 -15t15.5 -29.5v-110q0 -18 -5 -39.5t-14.5 -41t-23.5 -33.5t-32 -19q-4 -1 -15.5 -8t-21.5 -7q-4 0 -10 0.5t-21 4.5h-30q-2 0 -0.5 1t-0.5 1h-32q-6 0 -16.5 2t-21.5 4.5t-19 4.5t-10 3q-7 3 -12 6.5
t-13 13.5q-4 5 -7 12.5t-13 24.5q-5 10 -13 17t-15 16q-4 6 -7 14l-6 16v93q0 34 19 59.5t42 39.5q6 9 11 14.5t10 13.5q-8 4 -17 10t-13 17q-3 8 -3 12v6t-0.5 4t-3.5 6v38q0 17 6.5 36.5t16.5 38.5t21.5 34.5t20.5 25.5q6 6 21 14t29 12q5 2 11.5 3.5t12.5 3.5h39
q2 0 5.5 -1t6.5 -1q2 0 6.5 1t6.5 1q3 0 6.5 -4.5t7 -9.5t5.5 -10t2 -7q7 -6 21.5 -16t25.5 -15q10 -4 18.5 -5.5t18.5 -7.5q7 -4 10.5 -11.5t6.5 -14.5v-77z" />
    <glyph glyph-name="nine" unicode="9" horiz-adv-x="545" 
d="M360 430q-2 11 -3.5 24t-4 25t-5.5 21.5t-9 12.5h-34q-12 5 -22.5 13t-21 15.5t-21 12.5t-23.5 5q-6 0 -13.5 -2.5t-15 -6t-13.5 -7.5t-7 -8q-2 -7 -5 -22.5t-6 -33t-5 -33.5t-2 -25q0 -21 7.5 -37.5t30.5 -28.5q8 -2 27 -9t33 -7h29q16 0 31 4t27 11.5t19 19t7 28.5v28z
M449 295q0 -2 0 -1t-1 0v-24q0 -1 -2.5 -19.5t-5.5 -42.5t-6.5 -47.5t-5.5 -34.5q-1 -5 -5 -12t-7 -14q-2 -5 -4 -13t-5 -16t-6.5 -15t-7.5 -10q-2 -2 -8 -4.5t-13.5 -5.5t-15 -6.5t-13.5 -6.5q-11 -7 -18 -11t-13 -5.5t-11.5 -2.5t-13.5 -4h-22q-1 0 -11.5 3t-22.5 7
t-23.5 8t-16.5 5q-9 2 -24.5 4.5t-30.5 4.5q-5 1 -16 7t-22 5q0 5 0.5 12t-2.5 10v36q0 5 4.5 9t11 7t13.5 4.5t11 1.5q12 0 19 -11t23 -21q5 -3 22.5 -5.5t30.5 -5.5h22q2 0 4.5 -0.5t4.5 -0.5q48 0 81.5 25t33.5 76q0 12 -3 28.5t-7.5 31t-10 24t-9.5 7.5l-69 -9h-35
q-1 0 -2 -1t-4 -1q-2 0 -6 2h-28q-10 0 -25.5 4t-29 11t-23 16.5t-8.5 20.5q-4 3 -8 10t-7 15.5t-5 16.5t-2 13q0 1 0.5 1.5t0.5 1.5v3v48q0 2 2 8t2 8v62q0 18 11.5 35t25.5 22q1 5 0.5 9.5t-0.5 9.5q18 15 43.5 24.5t51.5 9.5q4 0 6 -2h46q3 -3 4.5 -7t4.5 -7h26
q19 0 40 -10t38 -25.5t28 -34.5t9 -37q0 -3 0.5 -9t2.5 -10v-31q0 -2 0.5 -1t1.5 1v-23q0 -1 1 -8.5t2.5 -16l3 -17t2.5 -13.5v-24q0 -2 0 -1t1 1v-42z" />
    <glyph glyph-name="colon" unicode=":" horiz-adv-x="283" 
d="M212 77q0 -5 -2.5 -17.5t-7 -26t-10.5 -23.5t-14 -10q-3 0 -12.5 3.5t-19.5 8t-19 9t-11 6.5q-5 6 -9 14.5t-4 19.5q0 23 14.5 40t33.5 23q3 1 7 3t6 2l18 -14q8 -6 15 -12.5t12 -11.5l2.5 -7.5t0.5 -6.5zM182 367q0 -9 -4 -12t-10 -5t-13 -4.5t-13 -10.5q-10 1 -28 5.5
t-24 12.5q-1 1 -4 9.5t-6.5 19t-6 20t-2.5 12.5q0 22 15 27t32 7q2 0 10 2.5t13 2.5q11 0 21.5 -6.5t12.5 -17.5q2 -5 2 -12t3 -12v-28q0 -1 1 -4.5t1 -5.5z" />
    <glyph glyph-name="semicolon" unicode=";" horiz-adv-x="417" 
d="M293 58q0 -6 -2 -13t-5 -14t-5.5 -12t-2.5 -6q-6 -11 -14 -23t-12 -23q-10 -31 -20.5 -47t-29.5 -32q-8 -7 -15 -11t-20 -9h-24q-10 5 -14 16t-4 22t4 30t9 31q7 16 10 33.5t5.5 35t6.5 32.5t13 27q7 4 17 9t20 9h31q5 -8 13 -14.5t16 -11.5q15 -9 19 -13.5t4 -15.5z
M273 354q0 -3 -0.5 -6t-5.5 -8q-5 -2 -10 -3t-10 -3q-3 -1 -10 -6.5t-10 -5.5q-14 0 -30 8t-19 12q-2 4 -2 10t-2 10q-4 12 -8 17.5t-4 21.5q0 8 3.5 15.5t11.5 12.5q3 1 11.5 3t17.5 3.5t17 3t9 1.5q16 0 24.5 -7.5t13.5 -24.5v-24q0 -2 0 -1t1 1v-23z" />
    <glyph glyph-name="semicolon" unicode="&#x37e;" horiz-adv-x="417" 
d="M293 58q0 -6 -2 -13t-5 -14t-5.5 -12t-2.5 -6q-6 -11 -14 -23t-12 -23q-10 -31 -20.5 -47t-29.5 -32q-8 -7 -15 -11t-20 -9h-24q-10 5 -14 16t-4 22t4 30t9 31q7 16 10 33.5t5.5 35t6.5 32.5t13 27q7 4 17 9t20 9h31q5 -8 13 -14.5t16 -11.5q15 -9 19 -13.5t4 -15.5z
M273 354q0 -3 -0.5 -6t-5.5 -8q-5 -2 -10 -3t-10 -3q-3 -1 -10 -6.5t-10 -5.5q-14 0 -30 8t-19 12q-2 4 -2 10t-2 10q-4 12 -8 17.5t-4 21.5q0 8 3.5 15.5t11.5 12.5q3 1 11.5 3t17.5 3.5t17 3t9 1.5q16 0 24.5 -7.5t13.5 -24.5v-24q0 -2 0 -1t1 1v-23z" />
    <glyph glyph-name="equal" unicode="=" horiz-adv-x="474" 
d="M377 179q0 -5 -4.5 -10.5t-9.5 -5.5q-2 0 -4 1t-4 1q-1 0 -7.5 -1.5t-14 -3.5t-14 -4t-8.5 -2h-29q-5 0 -8 1t-23 6h-22q-4 0 -8.5 -1.5t-9.5 -3.5q-2 -1 -8 -0.5t-8 -1.5h-63q-8 5 -8 11t-3 11v22q0 16 10.5 29.5t21.5 18.5h51q1 0 3 -2h32q2 0 0.5 -1t0.5 -1h24
q3 0 9 -1t11 -2q8 -1 12.5 -2.5t6.5 -1.5q6 0 20.5 3.5t25.5 3.5q17 0 20.5 -7.5t7.5 -26.5v-29zM379 410q0 -7 -4 -14.5t-10 -14t-13.5 -10.5t-14.5 -4q-2 0 -2.5 0.5t-2.5 1.5h-41q-2 0 -0.5 1t-0.5 1h-32q-2 0 -1 1t-1 1h-23q-2 0 -11 0.5t-17 4.5h-21q-2 0 -9.5 -2.5
t-21.5 -2.5h-9t-13 7q-1 1 -2 6t-2.5 12t-2.5 14t-1 11q0 10 3.5 18.5t11.5 8.5h4t3 -2q11 4 22.5 6.5t22.5 6.5h24q2 0 9 -1.5t13 -3.5q3 -1 7 -0.5t6 -1.5h23q1 0 3.5 1t6.5 2q7 1 14 0t12 4h60q1 -1 3 -2.5t4 -3.5t2 -4.5t2 -4.5v-36z" />
    <glyph glyph-name="question" unicode="?" horiz-adv-x="475" 
d="M310 39q0 -4 -4.5 -11t-11 -13t-13.5 -10.5t-11 -4.5q-9 0 -15.5 6t-13 12.5t-13.5 10.5t-18 0q-4 3 -5 6.5t-3 7.5v26q5 5 11.5 13.5t13.5 16.5t15.5 14t17.5 6q11 0 20 -10.5t15.5 -24.5t10.5 -27t4 -18zM382 510q0 -16 -11.5 -29.5t-17.5 -21.5q-3 -4 -7 -16.5
t-10 -22.5q-7 -11 -17 -22t-18 -23q-6 -9 -8.5 -23.5t-6 -28t-11 -23t-22.5 -9.5t-28.5 10.5t-13.5 25.5q0 2 2 8.5t4 11.5q2 2 6 2q-4 26 11 46.5t38 37.5q3 17 6 36t14 30q2 2 7 6.5t5 8.5v34q0 11 -7.5 26.5t-18 29t-22.5 22.5t-21 7q-2 -1 -6 0t-7 2t-9 5.5t-17 4.5
q-16 0 -26.5 -9t-18 -20t-14.5 -20t-17 -9q-6 0 -12 6.5t-11.5 15.5t-9 18t-3.5 13q0 14 14.5 28t34 26t40 19.5t31.5 7.5q5 0 7 -0.5t4.5 -2t7 -4t13.5 -5.5q11 -4 29.5 -6t33.5 -5q6 -7 14.5 -13.5t15 -14t11 -16.5t3.5 -20q13 -5 19.5 -16.5t10 -24.5t5 -26.5t4.5 -23.5
v-33z" />
    <glyph glyph-name="A" unicode="A" horiz-adv-x="580" 
d="M384 296q0 6 -6 31.5t-15.5 54t-20.5 51.5t-22 23h-29q3 -8 -0.5 -13.5t-9 -10t-10.5 -9.5t-5 -13v-23h-5v-8t-5 -4q-1 -5 0 -9.5t-1 -9.5q-3 -8 -8 -15t-9 -12v-24q-12 -13 -16.5 -16.5t-4.5 -15.5q0 -2 1 -11.5t3 -14.5h9q2 0 1 0.5t1 0.5h26q2 0 1 -0.5t1 -0.5h30
q2 0 1 -1t1 -1h60q8 4 16 4.5t16 2.5v44zM545 66q0 -11 -13.5 -19t-24.5 -8q-3 0 -8.5 1l-11 2t-10 2.5t-5.5 1.5q0 2 1 2t1 2t-3 6t-6 7q-2 -1 -5 -1q-4 0 -8 3.5t-9 3.5q1 9 -1 15.5t-5.5 14t-8.5 19t-11 31.5q-3 3 -10 3q-2 0 -6.5 -1t-6.5 -1t-5 1t-6 1q-2 5 -5.5 13
t-1.5 17q-5 -2 -10.5 -3t-11.5 -3h-22q-2 0 -0.5 -1t-0.5 -1h-110q-9 0 -20.5 -2.5t-22 -6t-18.5 -7t-9 -5.5l-7.5 -10t-8.5 -13.5t-5.5 -14.5t2.5 -13q-3 -2 -4.5 -10t-6.5 -11q-2 -2 -5.5 -2.5t-5.5 -2.5t-5 -15t-3 -21v-29h-25q-2 0 -5 -1t-5 -1q-19 0 -23 5.5t-9 22.5
v31q0 3 1 8t1 12q1 0 1.5 -1t2.5 -1t5.5 4.5t7.5 4.5q3 15 6 25.5t6 19t5 15t2 14.5h6.5t6.5 2q5 5 7.5 14t7.5 14q11 11 17.5 21.5t10.5 21t7.5 21.5t7.5 23q2 3 1 8.5t-2 9.5q-3 14 6.5 25.5t18.5 22.5q4 5 6.5 13t4.5 17.5t4.5 19.5t5.5 18q1 2 5.5 6.5t9.5 10.5l10 12
t6 10l9 25.5t4.5 13.5t2 8.5t2.5 9.5q0 2 3 8t6.5 13.5t6 14t2.5 9.5q0 9 -2 11.5t-2 7.5t4.5 7.5t7.5 2.5q2 0 5.5 -1t5.5 -1q9 0 14 4h22q6 0 14 -3.5t15.5 -8t14 -10t9.5 -9.5q14 -21 23 -44t13 -37q3 -11 9 -38t12 -49q3 -12 9 -25.5t12 -26.5t10 -22.5t4 -14.5
q0 -2 -1.5 -14t-1.5 -14q0 -8 4 -14.5t8 -11.5q6 -9 13.5 -23t14 -31t11 -35.5t4.5 -37.5q4 2 6 2q13 0 21 -13t10 -21v-25z" />
    <glyph glyph-name="B" unicode="B" horiz-adv-x="573" 
d="M439 199q1 14 -9 27.5t-25 25t-32.5 18.5t-32.5 7h-83q-2 0 -1 -1t-1 -1h-33q-2 0 -1 -1t-1 -1h-28q-2 2 -5 1t-5 1q1 3 -1.5 5.5l-4.5 4.5h-11q-1 -3 -2.5 -9.5t-3.5 -14t-3.5 -13.5t-1.5 -7v-137q2 -2 10 -6t18 -8.5t21 -7.5t18 -3h65q4 2 8.5 1.5t8.5 0.5q20 4 42 5
t28 4q11 5 23 14t21.5 21t15.5 25.5t6 26.5v22zM397 474q-2 3 -3 8t-2 8t-2.5 7t-1.5 6q0 9 -8.5 17t-14.5 10q-1 0 -11 2.5t-22 4.5l-24 4t-17 2h-41q-2 0 -1 -1t-1 -1h-26q-2 0 -1 -1t-1 -1h-43q-1 -5 -4 -14.5t-6 -21t-5.5 -23.5t-2.5 -21v-25q0 -2 -1 -0.5t-1 -0.5v-37
q0 -2 -0.5 -1t-0.5 -1v-29q0 -2 -1 -2t-1 -2q0 -3 7 -5.5t16 -4.5t17 -3t10 -1h39q27 3 60 7.5t67 8.5v5q-3 3 -1.5 2.5t2.5 7.5q11 11 18.5 19.5t7.5 22.5v54zM503 222q0 -11 -3.5 -28.5t-9 -34.5t-10.5 -30.5t-8 -17.5q-1 -2 -4.5 -8t-6.5 -12l-5.5 -11t-2.5 -6v-23
q-10 2 -15 0t-8 -5.5t-5 -8.5t-6 -9q-14 -5 -29.5 -5.5t-29.5 -4.5h-85q-2 0 -1 0.5t-1 0.5h-28q-2 0 -1 1t-1 1h-32q-2 0 -1 1t-1 1h-63q-2 0 -2 -1t-2 -1q0 4 -3.5 7.5t-5.5 7.5q-2 2 -2.5 5.5t-3.5 5.5q-6 4 -14.5 5t-16.5 3q-5 9 -6 27.5t-5 32.5v25q0 2 -1 1t-1 1v81
q0 2 1 1t1 1v62q0 2 1 0.5t1 0.5v36q0 2 -1 0.5t-1 0.5v36l-16 117v36q0 16 9.5 33.5t22 33t26 25.5t20.5 11q2 -2 8 -5t9 -7q1 -2 1 -3t2 -3h36l76 11h22q2 0 5 0.5t5 0.5t5 0.5t4 -1.5h22q19 0 31.5 -8.5t25.5 -20.5q7 -6 13.5 -5t13.5 -2q4 -2 10.5 -5t11.5 -6
q7 -11 13 -18.5t8 -18.5q1 -4 1 -5.5t0.5 -4t1.5 -6.5t4 -12v-41q0 -11 -8.5 -33.5t-8.5 -44.5q0 -23 7 -45.5t15 -42.5l15 -37.5t7 -31.5z" />
    <glyph glyph-name="C" unicode="C" horiz-adv-x="522" 
d="M463 499q0 -18 -10.5 -35t-30.5 -17q-22 0 -36.5 14.5t-27.5 31.5t-26.5 31t-33.5 13h-32q-7 0 -15 -1t-14 -3.5t-9 -7t0 -10.5q-26 -1 -45.5 -16t-32.5 -37t-19.5 -48.5t-6.5 -50.5v-62q0 -2 0.5 -1t1.5 1v-28q0 -2 0.5 -1t1.5 1v-22q0 -3 0.5 -9.5t2.5 -11.5q1 -3 0 -9
t2 -10v-22q0 -1 1 -1.5t1 -5.5q14 -2 26 -15q5 -7 9.5 -20.5t9.5 -21.5q7 -11 18.5 -17.5t12.5 -18.5q2 -1 3.5 -1t3.5 -2h36q2 0 1 -0.5t1 -0.5h30q32 0 51.5 19t30.5 42h18q11 14 24 24v11h35q1 -6 2 -14t1.5 -15.5t1 -13t0.5 -6.5q0 -13 -7.5 -27.5t-18 -28t-22 -24.5
t-19.5 -16q-6 -4 -16.5 -7t-22.5 -5.5t-23 -4.5t-17 -3h-59q-24 0 -51 10t-51 26t-41 37t-20 43q-1 2 -4.5 6.5t-7.5 9.5q-4 11 -4 26t-3 27v22q0 2 -1 1t-1 1v33q0 2 -1 1t-1 1v49q0 2 1 1t1 1v30q0 21 6.5 52.5t15.5 62t18.5 54.5t15.5 30q2 2 4 7t5 10.5t7 9.5t8 4
q2 0 12 -2t12 -2q10 0 12.5 4t12.5 10q5 1 11.5 2.5t13.5 3.5q2 2 5 7t6 5q1 0 3 -2h31q2 0 20.5 -2.5t40 -5.5t40 -5.5t20.5 -2.5q2 -1 4.5 -2.5t4.5 -2.5q5 -7 8.5 -14t5.5 -15q22 0 40.5 -12t18.5 -36z" />
    <glyph glyph-name="D" unicode="D" horiz-adv-x="546" 
d="M398 345q-5 16 -6 36t-4.5 38t-14 30.5t-34.5 12.5q-5 0 -10 1.5t-10 3.5q-7 6 -10 10t-5.5 6.5t-6.5 3.5t-12 1h-71q-2 0 -1 -1t-1 -1h-46q0 -1 -4 -15.5t-8 -33.5t-7.5 -38.5t-3.5 -30.5v-105q0 -2 0.5 -0.5t0.5 -0.5v-29q0 -2 1 -0.5t1 -0.5v-23q0 -2 1 -1t1 -1v-21
q0 -2 1 -1t1 -1v-23q0 -2 0.5 -0.5t0.5 -0.5v-25q0 -2 1 -1t1 -1v-29q3 -7 10 -12.5t12 -10.5q8 0 22 -2t28.5 -4t25.5 -4t12 -2h50q9 2 21.5 6t23.5 12t18.5 19t7.5 26v23l12 96v21q1 1 1.5 0t0.5 1v72zM465 210q-4 -1 -8 -5t-9 -2q-2 -2 1 -6v-57q0 -15 -6 -36.5t-16 -41
t-23 -33.5t-26 -13q-3 -5 -4 -12.5t-6 -10.5q-2 -1 -6 -0.5t-5 -1.5h-41q-2 0 -1 -1t-1 -1h-81q-2 0 -0.5 1t-0.5 1h-85q-2 0 -1 1t-1 1h-44q-6 26 -10 59.5t-8 65.5v31q0 2 -1 1t-1 1v176q0 2 1 1t1 1v102q0 3 1.5 11t-1.5 9v53h11q1 3 -0.5 13.5t-1.5 11.5q0 5 -0.5 8.5
t7.5 6.5q10 4 24.5 6.5t31.5 4t34 3.5t32 4h69q22 0 45 -7.5t43.5 -19t35.5 -25.5t21 -28q4 -9 9.5 -21t9.5 -23q5 -16 6.5 -33.5t4.5 -26.5v-168z" />
    <glyph glyph-name="E" unicode="E" horiz-adv-x="510" 
d="M433 481q-2 0 -1 1t-1 1h-65q-1 0 -14 2.5t-28.5 5.5t-29.5 5.5t-17 2.5h-27q-2 0 -1 0.5t-1 0.5h-37q-2 0 -1 -0.5t-1 -0.5h-28q-6 0 -16 -1.5t-17 -3.5q-3 -1 -9 -1.5t-8 -3.5q-1 -3 -3 -13t-4 -21t-4 -20t-2 -11v-54q0 -12 5 -25.5t14 -25t20.5 -19t23.5 -8.5h50
q2 0 7.5 1t10.5 3q4 1 9 0.5t9 1.5h24q1 0 2.5 0.5t3.5 0.5q10 0 21 -1.5t21 -4.5t18.5 -7t12.5 -8v-22q0 -9 -13 -11.5t-19 -4.5h-60q-4 0 -14.5 -2l-21 -4t-19 -4.5t-10.5 -2.5h-28q-2 0 -1 1t-1 1h-57l-1 -1q-1 -1 -4 -1l12 -101v-24q0 -2 0 -1t1 1v-31q0 -2 -0.5 -1
t-1.5 0v-18q9 -2 17.5 -3t17.5 -3h21q2 0 1 -1t1 -1h42q2 0 1 1t1 1h27q3 0 24.5 2t47 5t48 6t27.5 4h12q-1 -10 8 -14.5t16 -8.5q0 -7 2 -12t2 -12q0 -17 -7 -26t-26 -9q-3 0 -6 -0.5t-4 1.5h-85q-2 0 -1 -0.5t-1 -0.5h-26q-2 0 -1 -1t-1 -1h-26q-2 0 -1 -1t-1 -1h-83
q-14 0 -31.5 4t-32.5 9t-25.5 10t-11.5 6v23q0 2 -1 1t-1 1v55q0 2 -1 0.5t-1 0.5v60q0 2 -0.5 1t-0.5 1v30q0 3 -1.5 15.5t-3.5 27.5t-4.5 28t-4.5 16q3 4 6 9.5t8 10.5v25q1 2 1 4v4q0 7 -1 7v50q0 2 -1 1t-1 1v85q0 8 2.5 20t6 24t6.5 21.5t4 10.5h38q1 0 9 1.5t17.5 4
t19 4.5t12.5 2q5 1 12 1.5t14 2.5q5 1 10.5 0.5t9.5 1.5h23q2 0 1 0.5t1 0.5h97q2 0 3 -1h25q2 0 8 -0.5t14.5 -1t17 -1.5t15.5 -3q2 -1 3.5 -1.5t3.5 -1.5t3.5 -6t3.5 -9v-31q0 -3 -2 -11.5t2 -9.5h-18z" />
    <glyph glyph-name="F" unicode="F" horiz-adv-x="484" 
d="M433 496q0 -13 -8.5 -15t-23.5 -7h-22q-4 0 -14 4.5t-22.5 10.5t-27.5 10.5t-30 4.5q-16 0 -32.5 -7.5l-27.5 -12.5h-26q-4 0 -17.5 7.5t-23.5 7.5q-8 0 -17 -5t-9 -13v-35q0 -2 -0.5 -1t-1.5 0v-31q0 -2 0.5 -1t1.5 1v-44q0 -2 0.5 -1t1.5 1v-26q0 -1 1 -8.5t1.5 -16
t1.5 -16.5t1 -10q4 -2 8.5 -2t7.5 -2h52l98 14h41q3 0 8 -1l10 -2t9 -2.5t5 -1.5q7 -9 8 -13.5t1 -14.5q0 -12 -3.5 -17.5t-10 -8t-15 -3t-19.5 -3.5h-106q-2 0 -1 1t-1 1h-31q-2 0 -1 -1t-1 -1h-25q-3 0 -10 -1t-13.5 -2.5t-12 -4.5t-5.5 -6v-26q0 -2 -0.5 -1t-1.5 0v-80
q0 -2 1 -7.5t2 -11.5q2 -6 2.5 -22.5t1.5 -27.5q1 -5 5 -19.5t4 -22.5q0 -18 -8 -21.5t-25 -3.5h-16.5t-17.5 4v9q-8 2 -18 0v41q0 2 1 0.5t1 0.5v110q0 2 -1 0.5t-1 0.5v43q0 2 -0.5 0.5t-0.5 0.5v24l-9 77q0 14 17 15q1 2 1 6t-2 6v23l-14 92v31q0 11 3.5 24t8 25t10 21.5
t9.5 13.5q2 1 8 9t10 8q2 0 7.5 -3t10.5 -4q9 -2 16 -2t23 -5h50l98 12h46q5 0 13.5 -2t17.5 -4.5t17.5 -5t13.5 -4.5q4 -3 11 -19.5t7 -30.5z" />
    <glyph glyph-name="G" unicode="G" horiz-adv-x="551" 
d="M480 198q0 -2 -1 -7.5l-2 -11t-2 -10.5t-1 -6q-2 -24 -11 -44.5t-21.5 -39t-26.5 -35t-25 -31.5q-8 -10 -27 -15t-27 -7h-33q-5 0 -13 2.5t-16 5.5t-15.5 6t-12.5 4h-33q-1 0 -5 -1t-5 -1q-16 0 -35 9t-36.5 22t-31 26.5t-19.5 22.5l-1 5t-2.5 10.5l-3 11t-1.5 7.5
q0 11 3 22t3 21v26q0 4 -2 8.5t-3 9.5q-1 2 -0.5 6t-1.5 6v54l17 118v20q0 11 6.5 27t14 31.5t14 28.5t6.5 17q6 5 17 9t17 2q0 2 0.5 5.5t0.5 6.5q14 3 34.5 7t34.5 9q0 -2 6 -2h8.5t10.5 4h22q3 0 10 -1.5t12 -2.5q17 -2 32.5 -3t29.5 -6q5 -2 16 -12t19 -16q11 -2 15.5 0
t4.5 -9q0 -8 -3.5 -16t-3.5 -17h-13q-6 0 -15 3t-18.5 7t-18.5 7t-14 4h-38q-1 0 -16.5 -5t-35 -10t-36.5 -9t-20 -3q-20 -9 -37.5 -34.5t-17.5 -53.5v-22q0 -1 1.5 -6l3 -10t3 -9.5t1.5 -5.5q1 -5 1 -12t2 -14q0 -4 -0.5 -10t2.5 -9v-28q0 -2 0.5 -1t1.5 1v-44q0 -2 -1 -1
t-1 0v-34q0 -2 -0.5 -1t-0.5 0v-36q0 -16 11.5 -30t28 -24.5t34 -16.5t28.5 -7h42q11 0 25 5.5t27 14t22.5 17t12.5 14.5q6 1 12 1.5t12 2.5q0 1 2 8t4 16t3.5 16.5t1.5 10.5v29q0 17 -8.5 25t-21.5 11.5t-27.5 4.5t-27.5 4t-21.5 11t-8.5 26q0 11 2 13.5t2 8.5
q3 -3 9.5 -1.5t11.5 -1.5h25q2 0 1 -1t1 -1h49q2 0 1 -1t1 -1h77q2 -2 1 -8.5t2 -8.5v-77z" />
    <glyph glyph-name="H" unicode="H" horiz-adv-x="560" 
d="M488 529q0 -2 -2 -13t-4 -24.5l-4 -27t-2 -19.5v-25q0 -2 -0.5 -1t-1.5 0v-42q0 -2 -0.5 -1t-1.5 0v-201q0 -2 -0.5 -1t-1.5 0v-47l13 -68v-32q0 -7 -4.5 -13t-10.5 -10t-12.5 -6.5t-10.5 -2.5h-22q-3 0 -5.5 3t-4 7t-2.5 8t-2 5v38l15 84v30q0 3 -2 8t-4.5 10.5t-4.5 10
l-2 4.5q-1 5 -3 14t-3 18q-3 3 -7 4t-7 3q0 1 1 1t1 1l-44 1q-2 0 -2 -2h-36q-2 0 -1 -1t-1 -1h-32q-2 0 -0.5 -0.5t-0.5 -0.5h-36q-2 0 -0.5 -1t-0.5 -1h-98q-2 0 -1.5 1t-1.5 1q-3 0 -4.5 -6t-3 -13t-2 -13.5l-0.5 -6.5v-77q0 -1 2 -1v-72q0 -1 -0.5 -7t-1.5 -12.5
t-2.5 -12.5t-2.5 -8h-35q-4 11 -5 25.5t-4 29.5q-2 10 -1.5 24t-1.5 14v26q0 2 -1 0.5t-1 0.5v41q0 2 -1 1t-1 1v123q0 2 1 1t1 1v70q0 2 1 1t1 1v92q0 2 0.5 0.5t0.5 0.5v34q0 2 -0.5 1.5t-0.5 1.5v45q3 -3 9 -3h10q2 0 7.5 1.5t7.5 1.5q7 0 10.5 -4.5t14.5 -2.5v-26
q0 -2 0 -1t-1 0v-38q0 -2 -0.5 -1t-1.5 0v-83q0 -12 3.5 -27t8.5 -29t9.5 -24t5.5 -12q2 -2 12 4t18 8q9 2 18.5 2.5t14.5 2.5h28l92 -12h38q7 0 16 3t14 5v37q0 2 1 1t1 1v33q0 2 1 1t1 1v28q0 2 1 1t1 1v34q0 2 0.5 0.5t0.5 0.5v90q0 2 -0.5 2t0.5 3l44 1q4 -1 15.5 -3.5
t11.5 -13.5z" />
    <glyph glyph-name="I" unicode="I" horiz-adv-x="379" 
d="M298 546q0 -12 -8 -21t-19 -15.5t-23 -10t-20 -4.5q0 -2 -2 -12.5t-4 -23t-3.5 -23.5t-1.5 -16v-28q0 -2 -0.5 -1t-0.5 0v-46q0 -1 1 -1v-27q0 -6 2 -19t4.5 -27t4.5 -26t3 -15v-56q0 -2 -0.5 -1t-0.5 0v-57q0 -4 2.5 -10.5t5.5 -13t6 -12t4 -7.5q6 0 10.5 2t9.5 2
t8.5 -4.5t5.5 -10.5t3 -12t1 -9q0 -6 -2.5 -14t-7 -14.5t-12 -9.5t-17.5 0q-2 2 -1.5 6.5t0.5 6.5q-5 2 -9 3.5t-8 2.5q-5 1 -13.5 1.5t-12.5 2.5h-27q-2 0 -1 -1t-1 -1h-60q-8 0 -20 6t-12 14q0 9 10 24t18 29q2 3 10 13t12 18q0 1 2 12t4 24.5t3.5 26t1.5 15.5v29
q0 2 1 0.5t1 0.5v78q0 2 -1 0.5t-1 0.5v31q0 5 -1.5 10.5t-3.5 30.5q-2 11 -2.5 22t-2.5 21q-2 7 -2.5 14.5t-2.5 18.5q-2 12 -2 24t-8 26q-5 9 -12 14t-13 12q-4 4 -4 9t-4 10v22q0 1 1 2t1 4q7 0 16.5 1.5t17.5 3.5q2 1 7.5 0.5t7.5 1.5h23q1 0 3 -2h21h7.5t25.5 -5h22
q1 0 5 -1t6 -1h6.5t14.5 2q3 -9 7.5 -12.5t9 -6.5t8 -7t3.5 -14z" />
    <glyph glyph-name="J" unicode="J" horiz-adv-x="396" 
d="M297 84q0 -2 -4.5 -9t-6.5 -10q-8 -12 -22.5 -24t-31.5 -21.5t-35.5 -15t-34.5 -5.5q-28 0 -49.5 11t-44.5 19q-4 5 -6.5 13t-8.5 13q-3 1 -5 1t-5 1v33q4 2 6 2q4 0 13.5 -3t20.5 -6.5t22 -7.5t18 -7h24q1 0 9.5 4.5t10.5 5.5q10 4 21 5t21 9q6 -2 10.5 2t7.5 11.5
t4.5 15.5t1.5 14v89q0 2 -0.5 1t-0.5 1v21l-16 145v22q0 2 -1 1t-1 1v85q0 2 0.5 8.5t1.5 15t2.5 16t2.5 11.5q1 1 7 5.5t13 9.5t13.5 9t8.5 4q8 0 16 -6.5t13 -10.5v-95q0 -2 -0.5 -1t-1.5 0v-87q0 -2 -0.5 -1t-1.5 0v-165q0 -2 0.5 -1t1.5 1v-37q0 -2 0 -1t1 1v-26
q0 -3 1 -9.5t3 -12.5q1 -3 0.5 -9t1.5 -10v-26z" />
    <glyph glyph-name="K" unicode="K" horiz-adv-x="535" 
d="M480 52q0 -15 -8.5 -21.5t-22.5 -6.5t-26 7.5t-22 18.5t-17 23t-10 21q-6 2 -11.5 4t-10.5 4q0 12 -12.5 38.5t-32 53.5t-42.5 48t-43 21q-4 0 -19.5 -5.5t-32 -12.5t-29.5 -14t-13 -10v-68q0 -2 -0.5 -1t-1.5 0v-52q0 -9 -2.5 -21.5t-5.5 -25.5t-6.5 -24t-6.5 -16
q-5 -1 -9.5 -1.5t-6.5 -0.5q-8 0 -11.5 0.5t-12.5 7.5q-2 8 -1.5 13.5t-2.5 10.5v22q0 2 -1 1t-1 1v28q0 2 -1 1t-1 1v53q0 2 -0.5 1t-0.5 1v88q0 2 0.5 0.5t0.5 0.5v66q0 2 1 0.5t1 0.5v43q0 2 1 0.5t1 0.5v39q0 2 1 1t1 1v35q0 2 1 1t1 1v35q0 2 0.5 1t0.5 1v35q0 2 1 1
t1 1v41q0 2 1 0.5t1 0.5v22q7 2 11 5h23q1 0 5 -1.5t9 -3.5t9.5 -3.5t7.5 -1.5v-7t2 -6v-45q0 -2 -0.5 -1t-1.5 0v-36q0 -2 -0.5 -1t-1.5 0v-68q0 -27 10.5 -49.5t15.5 -35.5q1 -2 1 -6.5v-8.5q2 -1 3.5 -0.5t3.5 0.5q10 0 17.5 4t14.5 8.5t14.5 8t16.5 2.5q8 13 15 33
t15 31q10 14 14 22l7 14t6 12.5t10 18.5l6.5 6.5t9.5 7.5q5 1 9 3.5l12 7.5q5 3 12.5 8.5t12.5 12.5q7 9 12.5 18t11.5 17q2 3 3.5 8t4 10t6.5 9t10 4q5 0 17 -2t23 -2v-6.5t2 -5.5v-25q-5 -5 -16.5 -19.5t-16.5 -25.5q-2 -2 -11.5 -12.5t-16.5 -17.5l-15 -13.5t-32.5 -31
t-32 -34.5t-14.5 -26v-24q0 -6 6 -12.5t13.5 -12t13.5 -9.5t7 -5q8 -7 12 -18t1 -16q2 -4 7 -3.5t10 -3.5q10 -9 15 -16.5t15 -13.5q5 -14 7 -27q3 -3 8.5 -7t8.5 -8q6 -8 14 -20t16 -23q4 -6 11.5 -22.5t16.5 -28.5q1 -5 2.5 -11t1.5 -11z" />
    <glyph glyph-name="L" unicode="L" horiz-adv-x="480" 
d="M392 40q0 -5 -2 -11t-4 -8q-2 0 -4 -0.5t-5 -0.5q-1 -4 -4 -10h-147q-2 0 -1 0.5t-1 0.5h-39q-2 0 -0.5 1t-0.5 1h-27q-1 0 -10.5 1t-21 2.5t-22 2.5t-15.5 1v12q0 2 0.5 0.5t0.5 0.5v25q0 2 1 1t1 1v28q0 2 1 1t1 1v41q0 2 1 0.5t1 0.5v62q0 2 0.5 1t0.5 1v77q0 2 1 1
t1 1v56q0 2 1 1t1 1v39q0 2 1 0.5t1 0.5v29q0 2 0.5 0.5t0.5 0.5v24q0 1 1 2.5t1 3.5q0 6 -5 13.5t-7 9.5v110q12 -2 15.5 3t10.5 5q8 9 8 13t10 4q8 0 13.5 -5t8.5 -12.5t4 -14.5t2 -12v-21q-11 0 -11.5 -3.5t-0.5 -10.5q0 -2 -0.5 -6t1.5 -5v-52q0 -1 2 -1v-68
q0 -2 0.5 -1t1.5 1v-85q0 -2 0.5 -1t1.5 1v-84q0 -1 2 -1v-66q0 -1 1 -1v-50q0 -7 1.5 -10.5t4.5 -5t8.5 -2t12.5 -2.5h50q4 0 8 1t9 2t7 1h4.5t7.5 0.5t15 2.5h22q2 0 13.5 5.5t25.5 5.5q8 0 15 -5.5t12.5 -14t9 -17t3.5 -14.5z" />
    <glyph glyph-name="M" unicode="M" horiz-adv-x="566" 
d="M505 507q0 -2 -0.5 -1t-1.5 0v-42q0 -2 -0.5 -0.5t-1.5 0.5v-28q0 -2 -0.5 -1t-1.5 0v-20l-16 -164v-23q0 -2 0 -0.5t-1 0.5v-31q0 -2 -0.5 -1t-1.5 0v-109q0 -2 0.5 -1t1.5 1v-24v-8.5t3 -8.5v-17q-5 0 -8.5 -1.5t-8.5 -1.5q-18 0 -26 3t-11.5 10t-4.5 19t-6 31v66
q0 2 1 1t1 1v23q0 11 3.5 32t3.5 31v36q0 1 1 5t1 6v6t-2 5v27q0 1 -0.5 6.5t-1.5 11.5t-2.5 12t-2.5 9q-1 1 -9 3q-4 1 -7 1q-4 0 -14.5 -12.5t-24.5 -31t-31 -40t-34 -39.5q-2 -2 -8 -4t-11 -4q-13 2 -23.5 10.5t-20.5 21.5q0 1 1 1.5t1 2.5t-5 11t-12.5 18.5t-15.5 17.5
t-14 9q1 10 -2 16t-7.5 10.5t-10.5 9.5t-11 12q-4 1 -10.5 -0.5t-6.5 -3.5q-1 -5 -1.5 -10.5t-0.5 -9.5v-34q0 -2 0 -1t-1 0v-38q0 -2 -0.5 -1t-1.5 0v-38q0 -2 -0.5 -1t-1.5 0v-41q0 -2 -0.5 -1t-1.5 0v-43q0 -2 -0.5 -1t-1.5 0v-48q0 -2 0 -1t-1 0v-93q-3 -1 -6 -1t-5 -3
h-29q-11 0 -21 5.5t-10 11.5q0 13 3.5 33t3.5 29v30q0 2 1 1t1 1v130q0 2 -1 1t-1 1v44q0 2 -0.5 0.5t-0.5 0.5v38q0 2 -1 0.5t-1 0.5v37q0 2 -1 1t-1 1v41q0 2 -1 0.5t-1 0.5v76q0 2 -1 3q0 1 -0.5 1t-0.5 1v1q0 2 1 3t1 3v50q0 11 12 17t20 6q33 0 61.5 -18.5t33.5 -46.5
v-26q0 -12 8 -28.5t18 -32.5t19.5 -28.5t12.5 -14.5q2 -2 5.5 -11.5t12.5 -28.5q8 -5 9 -4.5t6 0.5q2 0 13 1.5t20 1.5q2 2 2 6.5t2 6.5h33q3 11 9.5 25t12.5 27q3 7 12 24t18.5 38.5t16.5 44.5t7 42v28h54q3 0 10.5 -4t9.5 -6q2 -5 1.5 -7.5t2.5 -4.5v-57z" />
    <glyph glyph-name="N" unicode="N" horiz-adv-x="571" 
d="M499 213q0 -2 -1 -1t-1 0v-44q0 -2 -1 -0.5t-1 0.5v-31q0 -2 -1 -1t-1 0v-26q0 -2 -0.5 -0.5t-0.5 0.5v-22q0 -1 -1 -9t-2 -17.5t-2 -18t-1 -10.5h-5t-4 -2h-39q-7 0 -11.5 9t-7 19.5t-3 20t-0.5 10.5q-8 3 -11 4.5t-4 2.5t-2.5 1h-7.5q0 3 -0.5 8t-2 10.5t-3.5 10.5
t-7 6q-10 8 -16 15t-11 12.5t-10.5 9.5t-14.5 6q1 7 2.5 15t1.5 10q0 6 -6 13.5t-14.5 16l-17.5 17.5t-15 18l-12 16t-19.5 29t-20.5 36.5t-15 38.5q-1 3 -6.5 9t-12.5 11.5t-15 9.5t-13 4q-3 0 -5.5 0.5t-4.5 -4.5q-1 -1 -2.5 -9t-3 -18t-2.5 -19t-1 -12v-24q0 -2 -1 -1
t-1 0v-119q0 -2 0.5 -1t1.5 1v-44q0 -2 0 -1t1 1v-46q0 -2 0.5 -1t1.5 1v-95q0 -12 -6.5 -16.5t-17.5 -4.5t-15.5 4t-7 9t-5 9t-8.5 4q-3 0 -3 -1q-1 0 -2 0.5t-2 0.5v91q-1 2 -1 1t0 1v55q0 2 -1 0.5t-1 0.5v50q0 2 -1 0.5t-1 0.5v57q0 2 -1 0.5t-1 0.5v152q0 2 1 1t1 1v35
q0 2 1 1t1 1v25q0 26 7 44t38 18q14 0 19 -8.5t18 -16.5q6 -4 16 -9.5t18 -8.5v-25q0 -1 5 -5t10.5 -9t10 -9.5t4.5 -6.5t-1.5 -9t-1.5 -9q0 -3 3.5 -9.5t8.5 -14t10 -14.5t7 -10q5 -9 13 -20.5t14 -20.5q11 -21 23 -37q8 -13 19 -26.5t18 -24.5q3 -5 6.5 -18.5t11.5 -29.5
q0 -2 6.5 -6t9.5 -9q3 -6 5.5 -12.5t6 -12t9 -9t15.5 -3.5q17 0 20.5 7t3.5 22v34q0 2 1 0.5t1 0.5v29q0 2 -1 0.5t-1 0.5v45q0 2 -1 0.5t-1 0.5v29q0 2 -0.5 0.5t-0.5 0.5v28q0 2 -1 1t-1 1v37q0 2 -1 1t-1 1v51q0 2 1 1t1 1v26q0 7 2 19t5 24l5.5 22t3.5 13q3 1 4.5 2.5
t10.5 1.5q17 0 23 -5.5t7.5 -15t1.5 -22t4 -26.5v-22q0 -1 1 -1v-26q0 -2 0.5 -1t1.5 1v-33q0 -1 2 -1v-42q0 -2 0.5 -1t1.5 1v-170z" />
    <glyph glyph-name="O" unicode="O" horiz-adv-x="561" 
d="M429 330q-1 24 -5.5 41t-10.5 32t-13 29t-13 30q-10 2 -17.5 12.5t-14.5 15.5q-18 12 -36.5 13t-35.5 6q2 12 -3 14.5t-14 2.5q-17 0 -28.5 -8.5t-28.5 -25.5q-5 -5 -10 -8t-11 -7q-3 -2 -9.5 -3.5t-8.5 -4.5q-3 0 -7.5 -12.5t-9 -29.5t-7.5 -33.5t-3 -24.5v-22
q0 -2 -1 -0.5t-1 -0.5v-112q0 -2 1 -0.5t1 -0.5v-75q18 -3 31.5 -14t27 -24t28.5 -23t36 -12q5 0 12 -2.5t11 -2.5h36q14 4 29.5 6t23.5 9q8 6 14.5 16.5t8.5 15.5q2 7 6.5 29.5t9 47.5t8 46t3.5 24v24q1 1 1 0t0 1v31zM482 267q0 -2 -0.5 -1t-1.5 0v-30q0 -7 -2 -27.5
t-4.5 -42t-5 -39.5t-4.5 -20q-21 -24 -35.5 -42t-28.5 -30t-31.5 -18t-43.5 -6q-1 0 -5 2h-22q-8 0 -27.5 5t-40.5 11t-38 12t-20 8q-11 8 -23.5 16t-26.5 24q-12 13 -19 29.5t-11 35t-6.5 38t-5.5 37.5v21q0 2 -1 1t-1 1v69q0 21 5.5 50t12.5 57t13.5 49.5t9.5 25.5
q7 5 14 9t12 11q1 8 -1 16.5t3 10.5q15 3 26 6t21.5 6.5t21.5 8t26 8.5h82q0 -5 3.5 -8t5.5 -8h24q4 0 17 -4.5t27.5 -10.5t26.5 -11t13 -6q2 -2 5.5 -5t5.5 -6q10 -12 14.5 -28t6.5 -33.5t3 -34.5t4 -31v-27q0 -1 2 -1v-98z" />
    <glyph glyph-name="P" unicode="P" horiz-adv-x="523" 
d="M396 434q-4 15 -11.5 32t-25.5 28q-8 1 -16.5 2.5t-16.5 3.5v6q-3 1 -9 3.5t-4 7.5h-43q-2 0 -0.5 1t-0.5 1h-20l-67 9h-26q0 -2 -1 -4t-1 -4q-3 -23 -4.5 -41.5t-4.5 -38.5q-1 -6 -3 -11t-3 -9t-1 -6v-91h23l95 -10h38q12 -1 29.5 4.5t33.5 16.5t27.5 26t11.5 32v42z
M465 405q0 -13 -8 -35t-20 -43.5t-27.5 -37t-30.5 -15.5q-2 0 -9 1t-9 1q-9 0 -12.5 -5.5t-5.5 -12.5h-13t-12 -3h-32q-2 0 -1 0.5t-1 0.5h-29q-2 0 -1 1t-1 1h-58q-12 0 -30 -6.5t-24 -9.5q-2 -1 -3.5 -6.5t-1.5 -7.5v-37q0 -2 1 -14.5t5 -22.5v-23q0 -2 0 -1t1 1v-29
q0 -9 -3 -22t-9 -25.5t-14.5 -21.5t-19.5 -9t-18 7t-11 17t-6 20.5t-3 17.5v31q0 2 1 0.5t1 0.5v34l1 1q1 1 1 5q6 -1 8 4t9 4v397q4 4 7 8t16 4h5t6.5 -0.5l13.5 -1.5t25 -3h25q2 0 1 -1t1 -1h87q1 0 3.5 1t7.5 1q1 2 0.5 5.5t-0.5 6.5q21 0 36 4h20q1 0 10 -4t20.5 -10
t22.5 -12t16 -10q4 -3 6.5 -10t6 -14.5t8.5 -15.5t14 -13q8 -25 13 -39t8 -22t4.5 -14.5t1.5 -16.5z" />
    <glyph glyph-name="Q" unicode="Q" horiz-adv-x="548" 
d="M392 300q-2 0 -2 1v40q-1 0 -1.5 -1t-0.5 1v23q-3 3 -5.5 3.5t-6.5 3.5v107q-4 -2 -10 -3.5t-10 -1.5q-10 0 -22 7.5t-23.5 15t-22 12.5t-18.5 0q1 5 -1.5 7t-2.5 5q0 4 3 7q-5 0 -8.5 1t-5.5 1h-23q-2 -3 -5 -2.5t-6 -0.5q-5 -2 -10.5 -3.5t-7.5 -1.5
q-16 -1 -32.5 -19.5t-30 -44t-22.5 -54.5t-9 -52v-80q5 -18 6 -37.5t3 -38.5t8 -36.5t21 -31.5q4 -4 6 -8.5t4 -8.5t5.5 -6.5t10.5 -2.5q2 0 5 1t5 0v-15h22l74 -19h19v7q-4 8 -8 15.5t-10 15.5q-9 13 -13.5 20t-4.5 17q0 19 12 25t29 6q11 0 22.5 -4.5t4.5 -20.5q1 -1 5 -4
t9 -6t10 -5.5t8 -2.5h14q0 2 2.5 14.5t5 27.5t4.5 29t2 19v36q1 1 1.5 0t0.5 1v42zM497 -45q0 -8 -8 -14.5t-11 -8.5h-55q4 9 1.5 16t-7.5 11.5t-12 8.5t-12 7v23q-11 5 -24 9t-26 4q-3 0 -11 -0.5t-18.5 -2t-21.5 -2.5t-19 -3h-30q-2 0 -9 3.5t-11 3.5q-2 0 -4 -1t-4 -1
q-6 0 -15.5 2.5t-20.5 5.5t-21 6.5t-16 4.5h-22q2 10 -4.5 19t-20.5 4q0 4 -0.5 8.5t-0.5 8.5q-21 9 -29 35v23l-13 125v29q0 2 -0.5 0.5t-0.5 0.5v57q0 2 0.5 0.5t0.5 0.5v23q0 23 7 48.5t17.5 50t22.5 46t21 35.5q2 4 11 9t16 9q4 2 6 9q5 5 13.5 7t16.5 5h56q5 4 7.5 8.5
t8.5 4.5q2 0 10.5 -4.5t15.5 -6.5q18 -6 37.5 -10.5t37.5 -10.5q9 -3 26.5 -12t28.5 -22q0 -8 1 -16t10 -8q1 0 1 2h18q2 -5 4 -11t3 -11q2 -13 5 -27.5t5 -28.5q1 -4 0.5 -11.5t1.5 -9.5v-58q0 -2 0 -1t-1 0v-27l-11 -103v-24q0 -2 -0.5 -1t-1.5 0v-20l-16 -75v-38
q0 -9 5.5 -16t13 -12.5t16.5 -8t16 -2.5t8 2h5q-1 -8 0 -17.5t3 -14.5v-35z" />
    <glyph glyph-name="R" unicode="R" horiz-adv-x="548" 
d="M393 410q0 2 -0.5 6t-0.5 5v24q-8 12 -17 24.5t-14 23.5q-2 0 -4 1t-4 1q-7 3 -9 7.5t-11 4.5h-45q-5 -1 -11.5 -1.5t-11.5 -1.5q-4 -1 -7 -2.5t-5 -1.5h-43q-4 2 -10.5 3.5t-9.5 2.5q-4 1 -6 2.5t-3.5 3t-4.5 3t-11 1.5q-9 0 -12.5 -1.5t-11.5 -12.5v-31q0 -2 -1 -0.5
t-1 -0.5v-22q0 -10 -2.5 -21.5t-2.5 -21.5v-70q3 -11 3 -18t1.5 -11t6 -5.5t17.5 -1.5h41q2 0 1 -0.5t1 -0.5h95q14 3 28.5 4.5t25.5 7.5q5 3 9.5 10t8.5 12q0 1 3.5 11t7.5 23t7 25.5t3 18.5zM476 54q0 -15 -12 -24t-22 -9q-7 0 -16 3t-13 6q-16 27 -32.5 62.5t-26.5 61.5
q-1 2 -9.5 10.5t-17.5 6.5q0 2 0.5 4t0.5 4q0 18 -12.5 32.5t-29.5 25t-34.5 16.5t-28.5 6h-38q-11 0 -18 -7t-11 -17t-5.5 -21.5t-1.5 -20.5v-36q0 -2 0.5 -1t1.5 1v-30q0 -2 0.5 -1t1.5 1v-25q0 -2 0.5 -1t1.5 1v-63q0 -8 -3.5 -18t-4.5 -19q-2 -4 -6 -4h-7q-25 0 -35.5 9
t-14 24t-4 35.5t-5.5 44.5v28q0 2 -0.5 0.5t-0.5 0.5v50q0 2 -1 0.5t-1 0.5v53q0 2 1 1t1 1v62q0 2 0.5 0.5t0.5 0.5v37q0 2 1 1t1 1v30q0 2 1 1t1 1v30q0 2 1 0.5t1 0.5v29q0 2 0.5 0.5t0.5 0.5v30q0 2 1 1t1 1v32q0 2 1 0.5t1 0.5v41q0 8 5 14t13 6q4 0 12.5 -6t21.5 -6
l119 14h60q12 0 29 -4t34 -11t31.5 -16.5t21.5 -20.5q8 -14 17.5 -25t14.5 -22q2 -6 3 -12.5t3 -13.5v-23q0 -2 0.5 -1t1.5 1v-37q0 -1 -1 -6.5t-2.5 -11t-2.5 -10l-1 -4.5q-6 -25 -19 -36.5t-26.5 -20t-24 -20t-10.5 -36.5q0 -19 8 -35t17 -29t17 -21.5t8 -11.5q0 -6 -2 -7
t-2 -10q0 -5 7 -12.5t15 -16.5t15 -20t7 -22z" />
    <glyph glyph-name="S" unicode="S" horiz-adv-x="525" 
d="M445 212q0 -3 -3 -13t-7 -22l-7.5 -22.5t-4.5 -14.5q-3 -7 -5.5 -16.5t-6.5 -19.5t-9.5 -18.5t-13.5 -14.5q-3 -2 -11 -5.5t-18.5 -7.5t-21.5 -8t-20 -7q-15 -5 -18 -13q-10 -2 -16 -2.5t-9.5 -1t-6.5 -1t-9 -2.5h-41q-5 0 -22.5 5t-37.5 12t-37.5 13t-22.5 7v28
q0 5 0.5 8t3.5 11q20 -2 31 -5t19.5 -7t18 -8t26.5 -9h25q3 0 12.5 2.5t21 5.5t21.5 5t13 2q15 -2 31.5 4.5t30 17.5t22 26t8.5 30v42q0 3 -0.5 9t-0.5 12q-5 2 -8 5.5t-9 2.5q1 0 1 5q0 7 -6 11.5t-8 6.5q-19 14 -37.5 17.5t-35.5 6.5h-23q-2 0 -1 1t-1 1h-22
q-11 0 -29 4.5t-35 9.5t-29.5 10t-14.5 6q-14 10 -18 15.5t-6 13.5l-1.5 3t-1.5 6l-7 21q-2 5 -3.5 12.5t-3.5 14.5v49q0 7 2 16t5 17.5t5.5 14.5t3.5 7q5 1 9.5 0.5t9.5 -0.5q5 10 6.5 17t3.5 12.5t5.5 11.5t11.5 13q10 10 31.5 13t37.5 7h56q1 0 15 -2.5t31.5 -5t33.5 -5
t21 -2.5q12 -10 19.5 -14t7.5 -18q0 -11 -9.5 -21.5t-22.5 -10.5q-11 0 -24 6.5t-17 10.5q-13 2 -25 3.5t-24 3.5h-44q-4 0 -12 -1.5t-14 -3.5q-20 -5 -26.5 -8.5t-16.5 -9.5q-3 -1 -9 -7.5t-12 -15t-10.5 -17t-4.5 -13.5v-29q0 -2 4 -10t6 -10q23 -32 59.5 -46t78.5 -17h22
q55 0 91.5 -28.5t58.5 -79.5v-22z" />
    <glyph glyph-name="T" unicode="T" horiz-adv-x="446" 
d="M411 551q0 -2 -6.5 -11t-18.5 -29q-3 -2 -9 -5.5t-14 -3.5t-23 4.5t-28 4.5q-3 0 -11.5 -2.5t-17.5 -6t-15.5 -7.5t-6.5 -7v-23q0 -2 0.5 -1t1.5 1v-74q0 -2 0.5 -1t1.5 1v-47q0 -1 2 -1v-45q0 -2 0 -1t1 1v-58q0 -1 2 -1v-100q0 -2 -0.5 -0.5t-1.5 0.5v-40q0 -2 0 -1
t-1 0v-24q0 -5 -2 -18.5t-4 -23.5q-3 -3 -10 -7t-21 -4q-13 0 -19 2.5t-8 8.5t-2.5 15t-3.5 22v31q0 2 1 0.5t1 0.5v25q0 5 1.5 11.5t1.5 11.5v28q0 1 1 5.5t1 6.5q0 1 -1 7t-2 14.5t-2 16.5t-2 13q-1 6 -2 14.5t-3 15.5v64q0 1 -1.5 8t-4 15t-4.5 16t-3 11v54q0 2 1 1t1 1
v33q0 8 -3 16.5t-6 13.5q-2 4 -6.5 5.5t-9.5 4.5h-32q-3 0 -7.5 -0.5t-9.5 -3.5h-45q-2 4 -4 7.5t-2 6.5q-3 1 -7.5 0.5t-9.5 -0.5q0 7 -4 13v27q0 2 2 6t2 7l22 1l-3 6h10q8 0 25 -2.5t34.5 -5.5t31.5 -6t17 -3h71q13 0 32 4t37 9t33 9t19 4q6 0 13.5 -4.5t14 -11t11 -13.5
t4.5 -12z" />
    <glyph glyph-name="U" unicode="U" horiz-adv-x="562" 
d="M489 468v-6t-1 -5v-46q0 -2 0 -1t-1 0v-33q0 -2 -0.5 -1t-1.5 0v-29q0 -2 -0.5 -1t-1.5 0v-29q0 -2 -0.5 -0.5t-1.5 0.5v-33q0 -2 0 -1t-1 0v-47q0 -2 -0.5 -1t-1.5 0v-82q0 -2 0.5 -1t1.5 1v-36q1 -2 1 -3v-3q0 -12 -13.5 -17t-23.5 -11q-9 -6 -16.5 -14.5t-15.5 -16
t-17.5 -12t-21.5 -2.5q-3 -2 -4 -9.5t-3 -7.5q-5 -1 -12.5 -0.5t-9.5 -2.5h-63q-12 0 -26 3.5t-27 8t-21.5 9t-9.5 5.5q-2 2 -3 6.5t-6 5.5q-49 10 -68 49t-25 96v27q0 2 -1 1t-1 1v145q-2 4 -5 6.5t-5 6.5q-2 20 -3 39t-6 40v24q0 2 -1 3q0 1 -0.5 1t-0.5 1v1
q0 19 6.5 38.5t14.5 28.5q1 1 4 5.5t6 4.5t8.5 -3.5t10.5 -8t9 -9t4 -6.5q2 -9 3 -17.5t3 -17.5v-77q0 -2 0 -1t1 1v-35q0 -2 1.5 -8.5t3 -14.5t3 -15t1.5 -10q3 -21 2 -29.5t2 -9.5v-33q0 -2 0 -1t1 1v-37q0 -2 0.5 -1t1.5 1v-28q0 -26 7.5 -49t22.5 -40.5t36.5 -27.5
t48.5 -10q8 0 10 2h27q2 0 0.5 1t0.5 1h22q2 5 3 9t7 8h23q7 0 14 5.5t13 12.5t10 13t4 7q1 4 5 22t8.5 41.5t8 47.5t3.5 39v32q0 2 1 0.5t1 0.5v60q0 2 -1 1t-1 1v39q0 2 -1 1t-1 1v24q0 2 -0.5 1t-0.5 1v21q0 5 -1 13.5t-2.5 18.5t-2.5 20t-1 17q0 5 0.5 9t11.5 9h27
q1 0 5.5 -0.5t5.5 -0.5q3 0 5.5 -0.5t4.5 1.5h6q-2 -2 -2 -5.5t2 -4.5v-39q0 -2 0.5 -1t1.5 1z" />
    <glyph glyph-name="V" unicode="V" horiz-adv-x="508" 
d="M451 536q0 -15 -4 -23.5t-9.5 -15.5t-9.5 -13.5t-4 -18.5v-31q0 -2 -2.5 -6.5t-4.5 -9.5h-12v-53h-12q-1 -7 -2 -16.5l-2 -19t-2 -16.5t-1 -9v-36q0 -2 0.5 -2t0.5 -2q-5 1 -11 -1t-6 -10v-27q0 -1 1 -4.5t1 -5.5t-1 -7.5t-1 -9.5q-4 -3 -9 -4.5t-9 -4.5v-26
q-10 -9 -13 -23.5t-5 -30.5t-6 -31.5t-17 -25.5q-3 -2 -10.5 -8t-15 -13.5t-12.5 -15.5t-4 -16h-13q-9 0 -17 6.5t-14.5 15.5t-10.5 18.5t-5 14.5q-2 9 -3 17t-3 18v31q0 3 1 5t0 4.5t-4.5 5t-11.5 5.5q-5 18 -7.5 32.5t-5.5 27t-7.5 23.5t-14.5 21q-2 2 -1.5 7t-0.5 8t-1 7
t-2 7q-6 14 -12 27.5t-13 30.5q-3 8 -7 19.5t-6 22.5q-1 4 -1.5 11.5t-1.5 16.5t-3 18t-5 16q-2 5 -7 14t-10 21t-9.5 25.5t-5.5 26.5q0 4 -5 16t-5 23q0 5 3.5 14.5t4.5 11.5q10 -10 21 -12.5t21.5 -4t20.5 -4.5t19 -13q5 -13 8 -26.5t7 -27.5q6 -24 11 -51t11.5 -54
t16.5 -53t25 -48q2 -2 2 -6q3 -13 2 -16t0 -11q2 -2 7.5 -5.5t6.5 -3.5q2 0 2 1t1 1q-1 -14 -1.5 -23.5t1 -15.5t7.5 -8.5t19 -2.5q22 0 32.5 17t15.5 39t7 43.5t5 30.5q14 7 17.5 13.5t3.5 19.5q0 2 -1 16t-2 22q5 2 11 8t8 14t2.5 18t2.5 18q1 3 4 13t6 21t5.5 21.5
t2.5 15.5v38q2 -2 7 -1.5t7 2.5h29q5 -3 10 -14t5 -23z" />
    <glyph glyph-name="W" unicode="W" horiz-adv-x="614" 
d="M589 522q0 -4 -3 -9t-6.5 -9.5t-6.5 -8.5t-3 -6v-31q0 -3 1 -5t1 -4t-2.5 -5t-10.5 -8q0 -9 2 -23.5t2 -16.5q0 -4 -4 -17t-9 -26.5t-9 -24t-4 -11.5q-8 -31 -15 -57t-14 -53.5t-15 -60t-19 -78.5q-6 -26 -24 -32t-37 -11h-7v92q-12 2 -12 4.5v7.5q0 2 1.5 12.5t1.5 14.5
v44q-2 3 -3 6q-1 2 -1.5 4.5t-1.5 3.5q-5 8 -8 25t-5 32q0 1 -2 7t-4 8q-5 5 -10 9.5t-11 4.5q-9 0 -17 -9t-14.5 -20.5t-11.5 -22.5t-7 -15q-4 -1 -9.5 -1.5t-11 -1.5t-10.5 -4.5t-8 -11.5q-1 -2 -7.5 -10.5t-9.5 -13.5q-9 -14 -16 -28.5t-14 -28.5q-5 -11 -9.5 -24.5
t-9.5 -24.5q-1 -3 -4 -14t-7.5 -22.5t-10 -20.5t-12.5 -9q-13 0 -20.5 10.5t-11 24.5t-5 27t-3.5 19q-1 3 -2.5 12.5t-3.5 21.5t-3.5 25.5t-1.5 23.5q-3 46 -15.5 87t-27 80.5t-27 80t-15.5 85.5v25q0 1 -0.5 5.5t-0.5 5.5v6t2 7h2q1 0 3 2h36q9 0 17 -7.5t14 -18t10 -21.5
t4 -18q0 -2 -1 -3t-1 -2v-22q0 -2 -1.5 -14t-1.5 -14q0 -8 2.5 -20.5t6 -26t6 -26t2.5 -20.5q8 -10 14 -21.5t11 -26.5q1 -2 7 -9.5t8 -14.5q2 -5 2 -12v-15h4q5 0 12 1.5t14.5 4t13.5 5.5t7 5q4 6 10.5 16.5t13 24t11 28.5t4.5 30v28q0 2 1 1t1 1v32q0 13 4 26.5t9 25.5
t9 20.5t4 11.5q0 7 -2 15t-1 16q5 2 11.5 4t11.5 5h21q2 0 1 -1t1 -1h25q2 -2 3.5 -4.5t3.5 -4.5v-26q0 -2 2.5 -11.5t4.5 -20.5q4 -39 10 -61.5t22 -44.5q4 -7 7.5 -18.5t8 -21.5t12 -17.5t20.5 -7.5q11 0 25 4.5t17 17.5q6 33 10 65t7 61t7 54.5t11 47.5q11 1 20.5 -2
t17.5 -5h27v-36z" />
    <glyph glyph-name="X" unicode="X" horiz-adv-x="548" 
d="M496 26q0 -15 -8.5 -23.5t-20.5 -13.5h-27q-13 0 -26 13.5t-26.5 34.5t-27 44.5t-26 44.5t-24.5 34.5t-22 13.5q-21 0 -26 -21h-10t-9 -1q-10 -16 -15 -26.5t-8.5 -18.5t-8.5 -15t-14 -15q0 -4 -0.5 -8.5t-0.5 -8.5q-12 -3 -15.5 -12t-4 -20.5t-2 -22t-9.5 -15.5
q-4 -2 -10 -4.5t-13 -4.5h-27q-5 0 -9 4t-7 9t-5 9.5t-3 5.5v24q0 4 6.5 17.5t8.5 17.5l10 15t11 17q7 11 15.5 21t15.5 22q1 2 4.5 14t9 26t12.5 25.5t13 11.5q5 0 10.5 -1.5t11.5 -1.5q1 3 5.5 12.5t4.5 14.5v41q0 1 -1 2t-1 6q-13 4 -19 15.5t-6 27.5q-9 5 -19.5 9t-20 9
t-16.5 12.5t-9 20.5q0 2 -3 4.5t-3 7.5q-3 5 -6.5 9.5t-6.5 9.5q-5 10 -13 16l-16 12t-14.5 14t-7.5 20q-3 1 -11 1q-2 8 -3 21t-1 15q0 10 7.5 24t18.5 14q10 0 23 -7.5t16 -9.5q8 -4 16.5 -10t17.5 -11q5 -11 5 -18.5t-0.5 -12.5t1 -7t9.5 -2q2 0 4 1t4 1t2.5 -1t2.5 -1
v-24q5 -4 18 -19t28 -30.5t28 -28t17 -12.5q2 0 8 1t11 1q2 14 8 20.5t14 13.5q3 3 11 8.5t16.5 14t14.5 19t4 22.5q0 2 1 5.5t2 6.5q3 10 12 30t20 34q4 4 14.5 8t19.5 4q16 0 25 -11.5t9 -23.5q0 -7 -3 -15.5t-7 -17t-7.5 -14.5t-5.5 -8v-26q-1 -1 -16.5 -19t-33.5 -41.5
t-33 -46.5t-15 -34v-22l16 -71q4 2 6 2q6 0 22 -16.5t34.5 -39.5t37 -47.5t30.5 -40.5q4 -5 7.5 -14.5t3.5 -18.5zM356 513h-2l1 3h2z" />
    <glyph glyph-name="Y" unicode="Y" horiz-adv-x="534" 
d="M474 499q0 -5 -4 -7.5t-8.5 -4t-9 -2.5t-6.5 -1q-5 -2 -9 -3t-8 -6v-26q-11 -8 -19 -17.5t-14 -29.5q-1 -2 -6 -8t-8 -14q-4 -11 -8.5 -28t-9.5 -31q-1 -3 -6 -16t-10 -29.5t-9.5 -33t-4.5 -27.5v-23q0 -2 0 -1t-1 0v-52q0 -2 0 -1t1 1v-38q0 -1 2 -1v-40q0 -2 0.5 -1
t1.5 1v-40q0 -2 -2.5 -6.5t2.5 -6.5h-14q-2 -3 -1 -6.5t-2 -5.5q-2 -1 -3 -0.5t-3 -1.5h-26q-10 0 -17 9t-11.5 21t-7 23t-3.5 14v64q0 2 1 1t1 1v28q0 12 -3.5 26t-10.5 24q-4 5 -9.5 10t-9.5 12q-3 5 -4.5 13t-8.5 11q-5 2 -9 3t-8 6q-3 5 -5.5 12t-4.5 13q-1 2 -1 5.5
v5.5q-2 2 -7.5 4t-9.5 1q3 11 -2 25t-14 29t-19.5 30t-17.5 29q-1 2 -0.5 4t0.5 5q-14 2 -16.5 1t-2.5 10q0 2 1.5 11.5t1.5 11.5q0 11 -11 13t-21 2v38q0 7 8 12t10 8q1 5 0.5 9.5t-0.5 9.5h12q-1 -5 4 -8.5t9 -3.5q2 0 4 0.5t4 0.5q11 0 18.5 -12.5t13.5 -17.5
q1 -6 0 -13.5t-1 -15.5q8 -7 14.5 -15.5t12.5 -17.5q-1 -3 2 -7.5t7 -7.5t9 -5t9 -1q-2 -13 2.5 -24.5t12.5 -20.5t18 -16.5t19 -13.5q2 -7 2.5 -12.5t2.5 -11.5q7 -2 18 0v-24h24q11 13 20.5 22t13.5 20q6 17 14.5 40t15.5 44q0 1 4.5 9.5t9 19.5t8.5 21t4 13v26
q0 27 22 44q4 3 10.5 3.5t10.5 3.5h20q1 0 3.5 -1.5t7.5 1.5v-14h14q-2 -3 -1.5 -9.5t2.5 -10.5v-34z" />
    <glyph glyph-name="Z" unicode="Z" horiz-adv-x="493" 
d="M417 471q0 -6 -8.5 -21t-17.5 -30.5t-15.5 -27t-2.5 -11.5h-28q-1 -1 -1 -1.5t-1 -1.5v-43q1 -1 1 -2q0 -19 -8.5 -24t-8.5 -10v-29q-5 -8 -14.5 -11t-14.5 -5q2 -10 -8.5 -13t-17.5 -9v-29q-10 -8 -14.5 -13t-7.5 -8t-6 -4.5t-11 -2.5q0 -4 -3 -14.5t-6.5 -21.5t-6 -20
t-2.5 -10v-22q-5 -2 -9.5 -6t-13.5 -2q-2 -13 0.5 -26t10.5 -18q5 0 12.5 -1.5t15.5 -3.5h23q2 0 0.5 -1t0.5 -1h96q3 0 10.5 -1t16 -3t15.5 -4t9 -5q2 -6 2 -7.5v-6.5q0 -11 -6 -17.5t-14 -11t-17.5 -7t-17.5 -4.5h-62q-2 0 -1 1t-1 1h-23v11q-8 6 -14 0h-34q-2 0 -1 -1
t-1 -1h-35q-2 0 -5 -1t-5 -1h-5t-4 2h-24q-6 0 -14.5 2t-16 6.5t-12.5 11t-5 14.5q0 5 2 11.5t4.5 13t5 11t3.5 5.5q7 11 16.5 22.5t14.5 22.5q1 3 2 9.5t2.5 14t3.5 15t6 11.5q1 8 4 17.5t7 17.5q8 9 18.5 18.5t19.5 19.5t15.5 21.5t6.5 25.5v5t-2 5v27q0 1 -1 3t-1 4
q0 16 4.5 24.5t13 12.5t20.5 5t27 3l4 8t5 7q5 5 12.5 13.5t7.5 22.5v22q0 11 -6 19.5t-15.5 14.5t-21 9.5t-21.5 4.5h-43q-2 0 -1 -1t-1 -1h-21q-5 0 -12.5 0.5t-9.5 -3.5h-45q-6 0 -19.5 3.5t-13.5 11.5q0 3 1 9t2.5 12t2.5 10.5t1 5.5q0 3 -3 3q1 2 4 5t1 7h7
q7 -5 17.5 -8.5t22 -6.5t22 -5t18.5 -3h79q2 0 1 1t1 1h24q2 0 1 0.5t1 0.5h23q2 0 1 1t1 1h26q2 0 1 1t1 1h58q12 0 16.5 -4.5t9.5 -17.5v-25z" />
    <glyph glyph-name="bracketleft" unicode="[" horiz-adv-x="313" 
d="M247 33q0 -2 -1 -1.5t-1 -1.5v-22q0 -2 -3.5 -7.5t-5.5 -5.5q-8 -1 -18 -2.5t-15 -1.5q-2 0 -6.5 2t-16.5 7h-45l-10 -2q-4 -1 -7 -1h-4q-14 0 -20 7t-9 23v24q0 2 -1 0.5t-1 0.5v74q0 2 -0.5 1t-0.5 1v62q0 2 -1 0.5t-1 0.5v57q0 2 -1 0.5t-1 0.5v52q0 2 -1 0.5t-1 0.5
v45q0 2 -0.5 0.5t-0.5 0.5v36q0 2 -1 0.5t-1 0.5v23q0 2 -1 7t-2 9q-1 5 -0.5 11t-1.5 9v36q0 2 -1 1t-1 1v44q0 2 1 1t1 1v37q0 2 2 18t5.5 34.5t9.5 33.5t13 15q2 0 5.5 -2t5.5 -3t5 -0.5t5 -1.5h43h12.5t9.5 4h38q9 0 15.5 -6t6.5 -15q0 -1 -1 -6t-2.5 -11.5t-2.5 -13.5
t-2 -12q-4 2 -9 -0.5t-9 -2.5q-9 -1 -16 -0.5t-10 -3.5h-22q-2 0 -3 1t-3 1q-5 0 -8 -6.5t-5 -14.5t-3 -15.5t-1 -9.5v-23q0 -2 -0.5 -0.5t-1.5 0.5v-433q0 -2 3 -5.5t5 -7.5q5 -6 11.5 -10.5t15.5 -4.5q1 0 6.5 1t12.5 1.5t12.5 1.5t6.5 1q16 0 22.5 -11t6.5 -25z" />
    <glyph glyph-name="backslash" unicode="\" horiz-adv-x="271" 
 />
    <glyph glyph-name="bracketright" unicode="]" horiz-adv-x="323" 
d="M252 482q0 -2 -1 -1t-1 -1v-36q-2 -3 -1.5 -9t-0.5 -11q-1 -4 -2 -9t-1 -7v-23q0 -2 -1 -0.5t-1 -0.5v-36q0 -2 -0.5 -0.5t-0.5 -0.5v-45q0 -2 -1 -0.5t-1 -0.5v-52q0 -2 -1 -0.5t-1 -0.5v-57q0 -2 -1 -0.5t-1 -0.5v-62q0 -2 -0.5 -1t-0.5 -1v-74q0 -2 -1 -0.5t-1 -0.5
v-24q-3 -16 -9 -23t-20 -7l-21 3h-45q-12 -5 -16.5 -7t-6.5 -2q-4 0 -14.5 1.5t-18.5 2.5q-2 0 -5.5 5.5t-3.5 7.5v22q0 2 -1 1.5t-1 1.5q0 14 6.5 25t22.5 11q1 0 6.5 -1t12.5 -1.5t12.5 -1.5t6.5 -1q9 0 15.5 4.5t11.5 10.5q2 4 5 7.5t3 5.5v433q-1 1 -1.5 -0.5t-0.5 0.5
v23q0 2 -1 9.5t-3 15.5t-5 14.5t-8 6.5h-1q-1 0 -2 -1t-3 -1h-22q-3 4 -10 3.5t-16 0.5q-4 0 -9 2.5t-9 0.5q-1 5 -2 12t-2.5 13.5t-2.5 11.5t-1 6q0 9 6.5 15t15.5 6h38q2 -4 9.5 -4h12.5h43q2 2 5 1.5t5 0.5t5.5 3t5.5 2q8 0 13.5 -15t9 -33.5t5.5 -34.5t2 -18v-37
q0 -2 1 -1t1 -1v-44z" />
    <glyph glyph-name="asciicircum" unicode="^" horiz-adv-x="271" 
 />
    <glyph glyph-name="underscore" unicode="_" horiz-adv-x="271" 
 />
    <glyph glyph-name="grave" unicode="`" horiz-adv-x="544" 
d="M355 596q0 -5 -4.5 -12t-10 -13.5t-10.5 -11t-6 -5.5q-8 2 -17.5 6t-16.5 15q-13 23 -33.5 30t-40.5 12q-15 8 -33 22.5t-38 19.5q-3 5 -3.5 6.5t-0.5 6.5t2 9.5t5 13.5q1 2 1 6.5v8.5q8 8 11 7.5t8 -0.5q13 0 20 -8.5t20 -19.5q18 -16 27 -20.5t20 -12.5q4 -2 10.5 -4
t11.5 -4q4 -2 8 -6.5t9 -6.5q16 -8 31.5 -10t21.5 -16q1 -1 4.5 -5t3.5 -8z" />
    <glyph glyph-name="a" unicode="a" 
d="M340 253q-3 15 -7.5 34.5t-17.5 34.5q-24 18 -55 23l-62 10v19q-2 0 -3 0.5t-3 0.5q-7 0 -12 -5t-9 -12t-7.5 -14.5t-7.5 -13.5q-15 -3 -21 -12q0 -5 -1.5 -18.5t-3.5 -27.5t-3.5 -26t-1.5 -14v-55q5 -7 4 -12.5t1 -15.5q2 -12 6 -19.5t15 -24.5q3 -4 12.5 -10.5
t22 -12.5t25.5 -10.5t22 -4.5h21q1 -2 3 -2h4q12 0 18 1t11 3t12 5.5t20 8.5q0 1 3 19t6.5 41t6 44.5t2.5 29.5v36zM488 33q0 -12 -6 -22.5t-8 -15.5q-15 1 -23.5 2t-17.5 3h-21q-2 0 -1 1t-1 1h-72q-2 0 -1 -1t-1 -1h-22q-4 0 -12.5 -1t-38.5 -6h-39q-22 0 -51 11.5
t-56 28.5t-47 36.5t-23 34.5q-1 6 -5 13v186q0 1 1.5 5t3 9t3.5 10t2 8q7 45 38.5 72t76.5 32h36q8 0 18 -4t20.5 -9.5t20.5 -9.5t18 -4q15 0 22 8.5t18 17.5q4 4 10.5 8t12.5 8q8 3 12.5 4.5t9.5 3.5h33q21 0 29 -12.5t8 -33.5q0 -5 -1 -6.5t-2 -9.5q-2 -15 -4.5 -34.5
t-2.5 -27.5v-28q0 -2 -0.5 -0.5t-1.5 0.5v-45q0 -2 -0.5 -1t-1.5 0v-91q0 -2 0.5 -1t1.5 1v-39q0 -2 0.5 -1t1.5 1v-23q0 -18 10 -29t21.5 -18.5t21.5 -14t10 -16.5z" />
    <glyph glyph-name="b" unicode="b" 
d="M383 224q0 2 -1 3t-1 2v24q-5 20 -11 42t-16 34q-12 15 -26.5 21t-37.5 13q-6 2 -13 6.5t-9 4.5q-5 0 -10 -8t-5 -10h-5q-4 3 -9 3h-10q-32 0 -45.5 -19.5t-18.5 -53.5q0 -3 -2 -10.5t-4 -15.5l-3.5 -14t-1.5 -7v-52q6 -32 24.5 -56t43.5 -41h42q5 -3 11 -3.5t8 -0.5h45
l1 2q8 -3 17 10t16.5 31t13 37t5.5 28v24q0 2 1 3t1 2v1zM460 178q0 -14 -8.5 -35t-19 -41t-19 -36t-8.5 -20q-9 -9 -15.5 -19t-13.5 -18.5t-16.5 -14.5t-24.5 -6q-8 0 -24.5 4t-29.5 8q-12 3 -17.5 4.5t-9 1.5t-5.5 0.5t-7 2.5h-50q-2 0 -0.5 -1t-0.5 -1h-54q-10 0 -20 8
t-19 21q-1 17 -2 25t-1.5 13t-1 9t-2.5 13v29q0 2 -1 0.5t-1 0.5v256q0 2 -0.5 0.5t-0.5 0.5v25l-18 133v59q0 3 3.5 9.5t5.5 8.5l6 -3q1 0 1 1l1 2l25 -1q8 3 14 3h13h6.5t8.5 -2q3 -3 5 -11t4.5 -18.5t4 -20t2.5 -15.5v-38q0 -1 2 -1v-47q0 -1 1 -7t1.5 -12.5t1.5 -12.5
t1 -8q2 -1 4 -1h4q4 0 18.5 3.5t31 7.5t30.5 8t16 4h24q5 0 17 -5.5t25 -12.5t23 -13t12 -8q7 -6 17.5 -17.5t14.5 -25.5q5 -2 10 -5.5t6 -3.5q2 0 5 1q0 -16 2 -29.5t5.5 -28.5t8 -32.5t9.5 -41.5v-49z" />
    <glyph glyph-name="c" unicode="c" horiz-adv-x="500" 
d="M429 57q0 -3 0.5 -5t0.5 -4.5t-1 -6t-5 -10.5q-2 -3 -12 -8l-14 -7q-11 -5 -21.5 -10t-20.5 -7t-21.5 -4.5t-21.5 -4.5h-42q-2 0 -5.5 1.5t-6.5 1.5q-10 -1 -18.5 3t-17 10.5t-17.5 13.5t-20 12q-2 1 -7.5 1h-10.5q2 3 1 10t-4.5 13.5t-10 12t-16.5 6.5q-7 7 -7 13
q0 2 1.5 10t1.5 10q0 1 -5 12t-11.5 25.5t-11.5 30t-5 24.5q0 5 1.5 10t1.5 8v96q0 11 4.5 25t12 27t16 22.5t16.5 11.5q1 6 0.5 15t0.5 15q4 2 7.5 4t8.5 4h28q2 0 1 -1t1 -1h13q1 2 0 3.5t-1 3.5q0 8 6.5 12.5t14.5 6.5h48q18 0 33.5 -10.5t35.5 -15.5h28q28 0 39 -18
t11 -43q0 -14 -6.5 -28.5t-17.5 -24.5h-5q-1 4 -3 9.5t-6 7.5q-6 1 -13 2.5t-12 1.5q-17 13 -35.5 19.5t-44.5 6.5q-18 0 -37.5 -9t-35.5 -23.5t-26.5 -32.5t-10.5 -37q0 -26 8.5 -49.5t8.5 -34.5q0 -43 23 -72q2 -3 10 -9.5t19 -13.5t23.5 -12.5t22.5 -5.5q11 0 27 5
t30.5 10.5t25.5 10.5t13 5q23 0 33 -12t10 -32z" />
    <glyph glyph-name="d" unicode="d" 
d="M375 153l-18 119v20q-2 3 -1.5 13t1.5 14h-49q-23 5 -30.5 5h-10.5h-20q-15 2 -33 -10t-33 -31t-25.5 -40t-10.5 -37t4 -30.5t6 -19.5q10 -39 38 -59.5t68 -24.5q15 -2 20 -3.5t10 -1.5h25q2 0 0.5 -1t0.5 -1h27q2 0 1 -1t1 -1h18q1 2 2.5 8t3.5 12t3.5 11.5t1.5 6.5v52z
M463 559q0 -2 -0.5 -1t-1.5 0v-56q0 -2 -0.5 -1t-1.5 0v-55q0 -2 0 -1t-1 0v-59q0 -2 -0.5 -1t-1.5 0v-64q0 -2 -0.5 -1t-1.5 0v-73q0 -2 -0.5 -1t-1.5 0v-92q0 -2 -0.5 -2t-0.5 -1l-2 -168q-20 3 -44.5 8t-47.5 9h-33q-1 0 -9 -1.5t-18 -3t-20 -3.5l-15 -3h-34
q-4 0 -18.5 6t-31 13.5t-31.5 14.5t-19 9q-12 7 -23 18q-14 14 -17 32.5t-7 41.5q-2 13 -4.5 27t-5.5 27q-2 10 -2 16v9.5v5.5t-2 3v32q0 14 4.5 29.5t11.5 29t15 23.5t15 13v22q5 7 10 16.5t10 14.5q1 1 8.5 4t16 7.5t15.5 10t7 10.5q0 2 -1.5 3.5l-3.5 3.5q19 -9 44 -15.5
t43 -10.5h36q8 0 18.5 4.5t20 11t16 15t6.5 17.5v92q0 14 4 22.5t10.5 14t16 9.5t19.5 8h39q2 0 7.5 -2t7.5 2v-40z" />
    <glyph glyph-name="e" unicode="e" 
d="M347 352q0 5 -6 8.5t-13.5 6t-15.5 4t-11 1.5h-33q-10 -2 -21.5 -4.5t-22.5 -6.5t-20 -11t-14 -19v-21q2 5 10 2.5t10 -2.5h93q2 2 7.5 1.5t7.5 0.5q6 2 12.5 3t11.5 3q5 17 5 24v10zM453 387q0 -9 -2.5 -26.5t-5.5 -34.5t-6 -31t-4 -16q-2 -4 -4 -9.5t-5 -9.5
q-10 -14 -22 -22q-2 -2 -4 -3.5t-5 -3.5h-24q-2 0 -1 1t-1 1h-26q-2 0 -1 1t-1 1h-41q-5 0 -14.5 -3t-18.5 -6t-16 -6t-8 -3t-9 2.5t-17 5.5l-16.5 5.5t-9.5 2.5h-22q-7 -5 -8 -11.5t2 -11.5v-5q-5 1 -9.5 -2t-4.5 -9q0 -13 13.5 -35t31 -42.5t33.5 -34t21 -8.5h56q2 0 1 1
t1 1h37q23 0 35.5 -15t12.5 -36q0 -10 -5 -14.5t-13.5 -7t-18 -3t-18.5 -3.5h-21q-2 0 -1 -1t-1 -1h-25q-2 0 -0.5 1t-0.5 1h-24q-13 0 -32.5 5t-38.5 11.5t-33 12t-16 6.5q-5 2 -11 7t-11 13q-14 23 -27 57.5t-17 69.5v71q0 22 3.5 39.5t10.5 33t16.5 30t22.5 30.5q1 1 4 6
t7 10.5t9 10t10 4.5q2 0 4.5 -1.5t4.5 -1.5q1 0 4.5 2t8 4t8.5 4t5 3q7 5 19 11.5t24 8.5q8 2 18 1t12 3h33q2 0 11.5 -1t20.5 -3t20.5 -4t12.5 -5q2 -1 5 -7.5t8 -14t11.5 -14t13.5 -9.5h38l5 1q6 0 6 -4z" />
    <glyph glyph-name="f" unicode="f" horiz-adv-x="338" 
d="M244 594q0 -20 -11.5 -42.5t-22.5 -31.5l-9 -6t-12.5 -8t-11.5 -7t-5 -4v-31q0 -7 6 -11.5t14.5 -8t17 -6t13.5 -5.5q7 -4 8 -10t5 -11v-24q0 -2 -3 -8t-3 -8q-7 -8 -14.5 -15t-15.5 -12h-24v-170q0 -2 -0.5 -1t-1.5 0v-47q0 -2 -0.5 -1t-1.5 0v-31q0 -2 -0.5 -0.5
t-1.5 0.5v-26q0 -2 -0.5 -9.5t-1.5 -17t-2 -20t-2 -18.5q-2 -2 -4.5 -2t-4.5 -2h-31q-13 0 -29.5 11.5t-16.5 25.5l9 75v20q0 2 0.5 0.5t0.5 0.5v32q0 2 1 1t1 1v100q0 2 -1 1t-1 1v30q0 5 -1.5 13t-3.5 25q-3 26 -5.5 42t-5.5 28t-6 22.5t-7 23.5q4 0 10.5 4t12.5 10
t10.5 13.5t4.5 16.5v47q5 -2 10.5 4.5t10.5 4.5q3 12 11.5 20.5t17.5 16.5t16 17.5t6 23.5h11q3 0 4 -2t12 -2t13.5 4.5t9.5 4.5q4 0 10.5 -2.5t13.5 -2.5q0 -2 -0.5 -4.5t1.5 -4.5v-28z" />
    <glyph glyph-name="g" unicode="g" horiz-adv-x="506" 
d="M340 274q-3 1 -2 7t-2 26q-4 23 -7 34t-9 24q-1 3 -7 8t-13 9.5t-14.5 8t-12.5 3.5h-27q-1 -2 -3.5 -2t-6.5 -2q-3 7 -7 14t-6 12h-7q-9 -4 -14 -6.5t-19 -11.5q-7 -5 -14 -17t-12.5 -27t-8.5 -31t-3 -30v-62q0 -2 -0.5 -1t-0.5 -1v-22q2 1 4.5 -6t2.5 -10l4 1q1 -1 1 -5
q0 -5 -1 -11t0 -14q11 -12 23.5 -17.5t33.5 -13.5q5 -2 15.5 -10.5t14.5 -8.5q5 0 11 1.5t13 1.5q7 -7 20 -19t21 -21h26v34q1 1 1.5 0t0.5 1v31q1 1 1.5 0t0.5 1v27q1 1 1 0t0 1v31q1 1 1.5 0t0.5 1v72zM416 43q0 -2 -0.5 -1t-1.5 0v-53q0 -6 -8.5 -10t-11.5 -5
q-10 -16 -17.5 -27.5t-14.5 -21.5t-13.5 -18.5t-15.5 -18.5q-13 -14 -31.5 -19.5t-32.5 -8.5q-6 -2 -11.5 -2.5t-10.5 -1.5t-9.5 0t-7.5 -1h-33q-10 0 -24.5 3t-29 7.5t-26.5 9.5t-17 8v2q0 1 -2 3v26q0 10 7 16.5t16.5 10.5t19 6t15.5 3h36q2 0 1 -1t1 -1h53q3 0 11.5 2.5
t17.5 6.5t15.5 9.5t6.5 11.5v29q0 4 -5.5 8t-12 7.5t-12 6l-5.5 2.5l-12.5 5l-12.5 5t-17.5 4.5t-21.5 6.5q-14 6 -22.5 15t-19.5 18q-7 6 -21 16.5t-25 19.5q-3 2 -10.5 9t-11.5 12q-13 19 -15.5 48.5t-7.5 55.5v43q0 5 2.5 17t5.5 25q4 15 7 32q2 5 3 11.5t5 9.5
q11 9 17 19t10.5 19l8.5 17t10 14q5 5 14.5 10t20.5 8h33q2 0 7.5 -0.5t7.5 -2.5h35l66 8h22q4 2 8 2q14 0 32.5 -4t30.5 -10v-23q0 -2 0.5 -1t1.5 1v-160q0 -2 0.5 -1t1.5 1v-238z" />
    <glyph glyph-name="h" unicode="h" 
d="M449 47q0 -2 -0.5 -1t-1.5 0v-22q0 -14 -11 -21t-22 -7q-8 0 -18 4t-16 12q-2 11 -3.5 27t-5.5 28v76q0 2 1 1t1 1v26q0 9 2.5 20.5t2.5 19.5v11q-6 1 -8 5l-4 8t-5 6.5t-9 1.5v11q0 2 1 1t1 1v21q0 2 0.5 1t0.5 1v30q0 16 -9 24t-21.5 12t-26 5.5t-22.5 4.5h-85
q-2 0 -3.5 0.5t-5.5 -2.5q-1 -2 -2.5 -10.5t-3.5 -18.5t-3.5 -19t-1.5 -12v-24q0 -2 -0.5 -1t-1.5 0v-55q0 -1 2 -1v-26q0 -5 2.5 -22t5.5 -36t6 -35.5t4 -19.5v-26q0 -7 -5.5 -14.5t-13 -13.5t-16 -9.5t-14.5 -3.5q-11 0 -25.5 7.5t-18.5 14.5q-9 15 -9.5 30t-3.5 26v27
q0 2 1 1t1 1v23l9 75v66q0 3 -2 10t-4 14.5t-4.5 13.5t-2.5 7q2 4 12 11.5t10 11.5v39q0 2 -1 1t-1 1v27q0 8 -3 20t-7 27t-7 31t-3 30q0 8 3 26t8 37t13 33.5t17 14.5q6 0 16 -4t12 -9q3 -11 4.5 -23t4.5 -21v-31q0 -2 -0.5 -1t-1.5 0v-43q0 -30 18.5 -47t50.5 -20h42
q2 0 1 0.5t1 0.5h21q14 0 35.5 -8.5t42.5 -19.5t38 -21t22 -13t9 -9.5t7 -11.5v-22q0 -2 -0.5 -1t-1.5 0v-25q0 -2 0 -1t-1 0v-65q0 -2 0 -1t1 1v-31q0 -1 2 -1v-24q0 -2 0.5 -1t1.5 1v-28q0 -1 2 -1v-105z" />
    <glyph glyph-name="i" unicode="i" horiz-adv-x="302" 
d="M180 167q0 -2 -0.5 -0.5t-1.5 0.5v-33q0 -1 -1.5 -11.5t-4 -25.5t-6 -32.5t-7.5 -32t-8.5 -24.5t-8.5 -10q-5 0 -12 4.5t-13 10.5t-10 12.5t-4 11.5q0 2 1.5 11t3 19.5t3 19.5t1.5 12v25q0 2 1 1t1 1v74q0 2 -1 0.5t-1 0.5v31q0 2 -1 0.5t-1 0.5v27q0 2 -1 0.5t-1 0.5v27
q0 2 -0.5 1t-0.5 1v99q0 14 4 21t17 22q1 3 1 6.5v6.5h19q3 -5 7.5 -11t9.5 -8q2 -2 4 -6t5 -3v-100q0 -2 0.5 -1t1.5 1v-42q0 -1 2 -1v-50q0 -1 2 -1v-56zM199 639q0 -12 -3.5 -25.5t-10 -24t-16.5 -17.5t-24 -7q-15 0 -20.5 5t-7.5 13.5t-2.5 19t-4.5 21.5v22q0 13 11 29
t26 14q1 3 1 7v7q16 -7 26 -13t15.5 -12.5t7.5 -15.5t2 -23z" />
    <glyph glyph-name="j" unicode="j" horiz-adv-x="296" 
d="M185 465q0 -2 0 -1t-1 0v-30q0 -2 -0.5 -1t-1.5 0v-51q0 -2 -0.5 -0.5t-1.5 0.5v-144q0 -2 -0.5 -1t-1.5 0v-136q0 -2 0 -1t-1 0v-52q0 -2 -0.5 -1t-1.5 0v-34q0 -2 -0.5 -1t-1.5 0v-26l-11 -97h-19q-2 -8 -9.5 -16t-18 -14t-23 -10t-24.5 -4q-16 0 -30 8.5t-14 27.5
q0 12 6.5 22t16.5 17.5t22.5 12t23.5 4.5q4 0 10 -2q3 7 2 6.5t0 10.5v6v38q0 2 1 0.5t1 0.5v215q0 2 1 1t1 1v76q0 2 1 1t1 1v35q0 2 0.5 1t0.5 1v25q0 9 3 30.5t7 44t7.5 41t4.5 20.5q4 0 11 -1t13.5 -3t12 -3.5t7.5 -1.5q5 0 7 2v-18zM219 666q-1 2 -4.5 2t-4.5 -2h-38
q-2 0 -1 0t0 1q-5 0 -9 2q-1 0 -2 0.5t-2 0.5q-5 1 -11 9q-1 2 -1 3.5t-2 3.5v30q0 2 1 1.5t1 0.5q0 3 0.5 7t0.5 7q0 2 1 3q0 5 1 9.5t3 9.5h14q2 0 16 -6t22 -8q3 -1 7 -1.5t8 -2.5v-70z" />
    <glyph glyph-name="k" unicode="k" 
d="M444 34q0 -18 -6.5 -24t-20.5 -12h-29q-1 0 -9.5 3.5t-11.5 5.5q-5 12 -11 23.5t-12 22.5q-10 6 -21.5 11t-18.5 13q-8 8 -12 27t-14 34q-6 8 -20 12t-25 6h-37q-21 0 -33 -15t-12 -34v-30q0 -1 -2 -6t-4.5 -11t-4.5 -12.5t-2 -11.5v-24q-2 5 -10.5 2.5t-13.5 -2.5
q-18 0 -20 7.5t-6 24.5v29q0 2 0.5 0.5t0.5 0.5v23q0 2 1 1t1 1v55q0 2 1 0.5t1 0.5v73q0 2 -1 0.5t-1 0.5v76q0 2 -1 1t-1 1v56q0 2 -0.5 1t-0.5 1v71q0 2 -1 0.5t-1 0.5v97q0 2 1 1t1 1v48q0 2 0.5 0.5t0.5 0.5v27q1 1 2 3q1 3 -2 6h56q4 -12 7.5 -23t5.5 -25
q4 -20 1.5 -25t1.5 -6v-100q0 -2 0 -1t-1 0v-57q0 -1 1 -1v-24q0 -13 4 -29.5t10 -32.5t11.5 -28t8.5 -15q5 -6 20 -6t24.5 9t16 21.5t10 25.5t4.5 21q1 3 7 10t11 11q11 8 23 15.5t23 15.5q7 11 8.5 20t5.5 19q4 5 20 9t29 8h24q13 0 18 -13.5t5 -23.5q0 -18 -7 -31.5
t-18.5 -24t-25 -17.5t-27.5 -12q-4 -2 -12.5 -11.5t-13.5 -16.5q-11 -16 -18.5 -27.5t-7.5 -29.5q0 -25 15 -49.5t35.5 -46.5t41.5 -41t33 -32q2 -2 3.5 -8.5t1.5 -14.5z" />
    <glyph glyph-name="l" unicode="l" horiz-adv-x="326" 
d="M224 22q0 -14 -10 -18t-19 -4q-15 0 -30.5 7.5t-28 19.5t-21.5 26.5t-12 27.5v22q0 2 1 0.5t1 0.5v31q0 2 1 0.5t1 0.5v27q0 2 0.5 0.5t0.5 0.5v27q0 2 1 0.5t1 0.5v135q0 2 -1 0.5t-1 0.5v90q0 2 -0.5 1t-0.5 1v39q0 2 0.5 0.5t0.5 0.5v59q0 2 1 0.5t1 0.5v27q0 2 1 0.5
t1 0.5v22q0 5 1.5 19.5t4 31t4.5 30.5t2 17q9 8 13 13.5t12 5.5q2 0 13.5 -3.5t20.5 -6.5q5 -2 5 -4t2 -4v-39q0 -2 -0.5 -0.5t-1.5 0.5v-42q0 -2 -0.5 -1.5t-0.5 -0.5l-1 -50q0 -1 -1 -1t-1 -2v-24q0 -2 -0.5 -1t-1.5 0v-22q0 -2 0 -1t-1 0v-22q0 -2 -0.5 -1t-1.5 0v-22
q0 -2 -0.5 -1t-1.5 0v-23q0 -2 -0.5 -1t-1.5 0v-26q0 -2 -0.5 -1t-1.5 0v-34q0 -2 0 -1t-1 0v-124q0 -1 1 -1v-24q0 -3 1 -13.5t4 -20.5q2 -4 3 -16t3 -18q2 -5 3 -12t3 -13q1 -3 6.5 -14t11.5 -24.5t11 -27.5t5 -23z" />
    <glyph glyph-name="m" unicode="m" horiz-adv-x="722" 
d="M634 260q0 -2 -0.5 -1t-1.5 0v-33q0 -2 0 -1t-1 0v-29q0 -2 -0.5 -1t-1.5 0v-23q0 -2 -0.5 -1t-1.5 0v-22q0 -2 -0.5 -1t-1.5 0v-22q0 -10 -2.5 -21.5t-2.5 -21.5v-24q0 -2 -0.5 -1t-1.5 0v-26q0 -2 -0.5 -0.5t-1.5 0.5v-31q-6 -8 -10 -9.5t-11 -1.5q-23 0 -29 14.5
t-6 28.5v110q0 2 -1 0.5t-1 0.5v46q0 2 -0.5 1t-0.5 1v32q0 2 -1 0.5t-1 0.5v25q0 2 -1 1t-1 1v23q0 17 -11 27t-26 16t-29.5 9t-22.5 5h-23q-8 0 -15.5 -5t-13 -12.5t-9 -16.5t-3.5 -16v-77l-13 -117v-29q0 -2 0 -1t-1 0v-32q1 -2 1 -4v-5q0 -11 -8.5 -15.5t-17.5 -4.5
q-12 0 -17 6.5t-6 16t-1 20t-3 17.5v169q0 17 -4 36.5t-13 36.5t-23 28.5t-34 11.5q-12 0 -25.5 -5t-26.5 -13t-24 -18t-17 -19q-1 -7 -1.5 -11t-0.5 -7v-27q0 -2 -0.5 -1t-1.5 0v-26q0 -2 -0.5 -1t-1.5 0v-25q0 -2 -0.5 -1t-1.5 0v-22q0 -3 -1.5 -10t-3.5 -30
q-2 -25 -4.5 -43t-5 -32t-4.5 -25l-4 -22q-2 0 -6.5 -1t-6.5 -1q-13 0 -22.5 3.5t-11.5 5.5v101q0 2 1 1t1 1v28q0 2 0.5 1t0.5 1v24q0 2 1 1t1 1v22q0 5 2 11t2 11v21q0 2 0.5 1t0.5 1v25q0 2 1 0.5t1 0.5v32q0 2 1 1t1 1v79l-2 8q0 6 5.5 14t7.5 14h8q5 0 11 -3.5t12 -8
t13 -8t14 -3.5q9 0 17.5 9.5t10.5 15.5q3 -2 7 -2h6q14 0 28 4.5t21 4.5q8 0 18.5 -8t27.5 -16q12 -5 17 -4t11 -4h37q2 0 2 1.5t2 2.5q4 2 8.5 3t9.5 2q12 2 25 4.5t24 4.5h33q2 0 6.5 -1.5l10.5 -3.5t11 -4t6 -3h38q14 0 29 -14t27.5 -32t20.5 -34.5t8 -22.5v-29z" />
    <glyph glyph-name="n" unicode="n" 
d="M449 217q0 -2 -0.5 -1t-1.5 0v-33q0 -2 -0.5 -1t-1.5 0v-23q0 -2 -0.5 -1t-1.5 0v-26q0 -2 0 -1t-1 0v-43q0 -1 -1 -5t-1 -5q0 -8 2 -10v-38v-10.5t3 -9.5q-2 -5 -9 -5.5t-10 -4.5h-23q-10 0 -14.5 7t-6 17t-2 20t-2.5 16v24q0 2 -1 0.5t-1 0.5v30q0 2 -0.5 1t-0.5 1v35
q0 2 -1 1t-1 1v32q0 2 -1 0.5t-1 0.5v25q0 3 -1.5 16t-3.5 24q-3 17 -4 32.5t-4.5 28.5t-11 23t-22.5 15q-4 2 -7 2.5t-6 2.5h-38q-1 0 -11 -1t-22 -3t-23 -3.5t-15 -3.5t-14 -9.5t-18 -20.5q0 -2 -2 -16.5t-4.5 -36t-5 -46t-5 -46t-4 -36.5t-1.5 -17v-29q0 -2 0 -1t-1 0
v-60q0 -1 1 -3.5t0 -7.5q-13 -5 -25 -7.5t-26 -6.5q-4 5 -6 20t-4 27v22q0 2 -1 1t-1 1v78q0 2 1 0.5t1 0.5v36q0 2 0.5 0.5t0.5 0.5v32q0 2 1 1t1 1v92q0 4 -1.5 13t-3 18.5t-3 16.5t-1.5 8q0 3 8 12t17.5 18.5t18.5 17t11 7.5h26q2 0 0.5 -1t0.5 -1h43q2 0 0.5 1t0.5 1h30
q2 0 1 1t1 1h63q12 0 28 -5t31 -12.5t27 -17t16 -17.5q2 -4 6 -8.5t7 -10.5q6 -13 11 -28.5t17 -17.5v-7t2 -7v-27q0 -1 2 -1v-52z" />
    <glyph glyph-name="o" unicode="o" 
d="M377 233q0 21 -9 44.5t-25.5 42.5t-38.5 31.5t-46 12.5h-22q-19 0 -33.5 -10t-24.5 -25t-15 -33t-5 -35v-30q0 -2 -1 -1t-1 -1v-28q0 -2 1 -1t1 -1v-29q2 -4 2.5 -12.5t2.5 -17.5q1 -6 1.5 -10.5t1.5 -9.5q0 -2 1.5 -4t0.5 -4q-4 -9 10 -18.5t36 -17.5t46 -13.5t38 -5.5
q4 0 15.5 3.5t12.5 4.5q7 8 16 24.5t16.5 36.5t13 41t5.5 37v29zM442 248q0 -2 0 -1t-1 0v-22q0 -6 -2.5 -21.5t-6.5 -35.5t-8.5 -41.5t-9 -40.5t-8 -32t-4.5 -16q-9 -20 -27 -32q-28 -8 -60 -16h-23q-1 -1 -3 -1q-1 0 -2 1h-25q-18 0 -41 9.5t-44.5 23.5t-37.5 29t-21 27
q-4 9 -11 23t-10 28q-3 13 -4 20.5t-2 12.5t-1 9t-2 9v45q0 15 7 44.5t16.5 59t19.5 50.5t15 20q2 -1 4.5 2t4.5 4q10 4 22.5 7.5t23.5 8.5q14 5 19.5 6t15.5 3h22q2 0 0.5 1t0.5 1h28q32 0 60 -12.5t49.5 -33.5t33.5 -49.5t12 -60.5v-29z" />
    <glyph glyph-name="p" unicode="p" 
d="M354 245q-2 6 -2.5 10.5t-1.5 9t-3 11.5t-6 17q-1 4 -6 11t-11 14.5t-13.5 13t-14.5 5.5q-2 0 -3.5 -1t-3.5 -1q-8 0 -15.5 4.5t-19.5 4.5h-33q-4 -3 -8 -3q-6 -1 -14 -7t-10 -11q-4 -8 -7 -24.5t-4.5 -33.5t-2 -30.5t-0.5 -14.5v-71q3 -9 5 -23t6.5 -27t13 -22t23.5 -9
h33q2 2 8 1.5t8 0.5q13 2 26.5 4.5t24.5 3.5q5 5 9.5 11t6.5 11q1 3 3.5 17t5 31.5t4.5 33t2 20.5v43zM431 175q0 -3 -1.5 -12t-3.5 -19t-4 -18.5t-2 -9.5q-6 -15 -8 -30.5t-5 -29.5t-8.5 -25.5t-17.5 -20.5q-15 -11 -23 -12.5t-19 -5.5h-32q-2 0 -8.5 1t-10.5 2q-7 1 -9 1
t-3.5 -0.5t-6 0t-16.5 3.5h-32q-23 0 -44.5 -14t-21.5 -43v-54q0 -4 1 -10.5t-1 -12.5h-38q-7 0 -9.5 5.5t-4.5 7.5v23q0 2 -1 1t-1 1v35q0 2 -1 1t-1 1v168q0 2 1 0.5t1 0.5v62q0 2 1 0.5t1 0.5v64q0 2 0.5 1t0.5 1v159q0 2 -0.5 2t-0.5 1q1 2 3 2h4t4 0.5t3 -1.5h43
q3 0 8 2t9 3q5 1 11.5 1.5t11.5 1.5h23q1 1 4 1.5t5 0.5q5 0 9 -2h26q3 0 17.5 -2.5t33.5 -6.5t38 -7t29 -5q2 -1 2.5 -2.5t2.5 -3.5q1 -7 2 -17t3 -18q3 -12 11 -15t12 -11q1 -3 2 -10.5t2.5 -17.5t2.5 -19.5t2 -16.5q1 -5 0.5 -9.5t1.5 -7.5v-22q0 -1 2 -1v-42z" />
    <glyph glyph-name="q" unicode="q" 
d="M350 280q-6 10 -8.5 16.5t-7.5 11.5q-8 3 -17 5.5t-13 10.5q-4 1 -10.5 1t-9.5 1q-5 2 -14 5.5t-20 3.5q-19 0 -34 -8.5t-25.5 -22.5t-17 -32t-7.5 -37q-1 -11 -5 -28.5t-4 -22.5v-41q2 0 2 -6t1 -9q1 -5 2 -9.5t2 -9.5q0 -3 2 -6.5t1 -5.5q-2 -8 8.5 -17.5t25.5 -17.5
t31 -13t25 -5q2 0 15.5 2.5t21.5 4.5t17.5 3.5t11.5 0.5q4 -1 8.5 8.5t8 23t6 27t2.5 20.5v24q1 1 1.5 0t0.5 1v121zM442 284q0 -2 -0.5 -1t-1.5 0v-29l-23 -188v-32q0 -2 -0.5 -1t-1.5 0v-29q0 -1 2 -1v-33q0 -6 2.5 -22.5t6 -34t6.5 -32t3 -15.5q-11 -6 -13 -12
q-4 0 -9.5 -4t-10.5 -8.5t-9.5 -8.5t-6.5 -4q-7 0 -11.5 6.5t-8.5 13.5t-8 12t-11 3v31q0 2 0.5 1t0.5 1v57q0 17 -8.5 31.5t-30.5 14.5q-3 0 -9.5 -1t-13.5 -2.5l-14 -3t-10 -2.5h-30q-5 0 -15 6.5t-11 7.5h-32q-1 0 -5.5 -0.5t-6.5 -0.5q-18 0 -31.5 19t-23 42t-14.5 43
t-5 21v41q0 6 3.5 26.5t7.5 43.5t7.5 41.5t3.5 20.5q2 2 6 6.5t8.5 10t8 9.5t3.5 5v23q7 5 14 14t15 14t15.5 6.5t12.5 4.5h43q2 0 0.5 -1t0.5 -1h42q2 0 8 1.5t8 1.5q3 0 11 -3.5t16.5 -7t16.5 -7t11 -3.5q4 0 11 7l9 9q5 2 17 6.5t20 4.5t17 -4.5t12 -14.5q2 -4 1.5 -9.5
t2.5 -10.5v-32q0 -2 0.5 -1t1.5 1v-47z" />
    <glyph glyph-name="r" unicode="r" horiz-adv-x="416" 
d="M342 380q0 -16 -6 -30t-4 -25h-21q-1 0 -9.5 2t-19 4t-20 4.5t-14.5 3.5h-29q-3 0 -8.5 -2t-11.5 -5t-10 -6.5t-4 -6.5v-4t2 -3v-31l12 -117v-33q0 -2 0.5 -1t1.5 1v-26q0 -2 -0.5 -1t-1.5 0v-25q0 -6 -2 -17t-5 -22.5t-6 -21t-5 -12.5q-1 -1 -8.5 0t-15.5 3.5t-15 7
t-7 10.5q0 4 2.5 16t2.5 20v25q0 2 -0.5 1t-0.5 1v23l-23 160v48q0 2 1.5 7.5t1.5 7.5v27q0 2 1 1t1 1v25q0 2 2.5 14t4.5 17q3 3 6.5 3.5t8.5 0.5q8 0 11.5 -3.5t9 -8t14.5 -8.5t27 -4q6 0 7 2h24q3 0 9.5 0.5t7.5 2.5h48q5 0 11.5 -2.5t12.5 -5.5t11 -6t6 -4q1 -2 0.5 -4
t-0.5 -4z" />
    <glyph glyph-name="s" unicode="s" horiz-adv-x="422" 
d="M355 84q0 -22 -17 -41.5t-41.5 -33.5t-51 -22t-44.5 -8q-28 0 -59.5 10.5l-52.5 17.5q-1 1 -3.5 11t-2.5 14q0 10 13 14t23 8h77q3 0 10.5 3.5t9.5 3.5q7 0 16 2.5t16.5 6.5t13 11t5.5 16v22q0 4 -2.5 9.5t-6.5 10t-8 7.5t-6 3q-5 -1 -17.5 1t-20.5 5q-3 2 -9 4.5t-9 7.5
q-2 3 -3.5 7.5t-5.5 6.5q-22 10 -34 18t-31 22q-4 3 -15 8.5t-19 10.5q-5 14 -7 28t-6 28v32q0 2 1.5 7.5t4 12.5t4.5 14t3 10q7 6 16 8t17 5l26 2q-1 10 4.5 10.5t8.5 4.5q-2 2 -3 1.5t-4 2.5h8q1 2 0.5 2.5t-0.5 2.5l63 -1l-62 -4l44 -1q2 0 2 1h27q2 0 1 1t1 1h32
q4 0 15.5 -2.5t24 -6.5t22 -9t9.5 -10q0 -3 -3 -9q-2 -4 -4 -7q-1 -9 -1 -14t-1 -12h-18q-2 0 -1 0.5t-1 0.5h-35q-2 0 -1 1t-1 1h-55q-23 0 -37 -12t-14 -37q0 -12 4 -21.5t7 -11.5q9 -7 23 -14t30 -14.5l32 -15t29 -16.5q9 0 14.5 1.5t10.5 1.5q7 0 11.5 -7t8.5 -15
q5 -13 6 -24t5 -22l9 -22.5t5 -27.5z" />
    <glyph glyph-name="t" unicode="t" horiz-adv-x="320" 
d="M250 341q0 -16 -10 -16.5t-24 -3.5h-29q-3 -13 -8 -38t-9.5 -50t-7.5 -44t-3 -21v-30q0 -1 3.5 -10t8 -20.5t9 -22t7.5 -13.5q3 -4 9.5 -6t14 -3.5l15 -3t13.5 -4.5q0 -5 1 -7l2 -4t2 -5t1 -10q0 -14 -13.5 -29t-26.5 -15q-9 0 -16 3t-11 6q-2 2 -8.5 7.5t-14.5 12
t-16 14t-13 12.5q-16 17 -23 46.5t-11 62.5v69q0 2 1 1t1 1v33q0 2 1 1t1 1v34q0 11 -5 24t-11 26t-11 24t-5 16q0 4 6 7.5t13.5 10.5t13.5 19t6 32v62q0 2 -1 1.5t-1 1.5v23h12q1 0 6 -1t11 -3t11 -3.5t7 -3.5q7 -5 13 -13t5 -13.5t2 -7.5v-59q0 -9 7 -21.5t16 -19.5h21
q5 0 12.5 -1.5t12.5 -3.5q2 -4 7.5 -19.5t5.5 -25.5z" />
    <glyph glyph-name="u" unicode="u" 
d="M473 56q0 -13 -5 -26.5t-14 -24t-21 -17t-25 -6.5q-4 -3 -8.5 -8t-8.5 -8q-4 0 -5.5 6t-4.5 10q-8 10 -16 13t-13 5h-28q-1 0 -11.5 -3t-22.5 -6t-22.5 -6t-12.5 -3q-4 0 -7 -0.5t-6.5 -1t-9.5 -1.5t-17 -4h-41q-5 0 -16.5 3t-13.5 4q-1 11 -16.5 18t-26.5 11
q-1 4 -0.5 8t-1.5 8q-2 5 -9.5 9t-9.5 12q-3 10 -5.5 22.5t-13.5 17.5q-1 5 -2.5 15t-1.5 17q0 3 1 5t1 4v23q0 2 1.5 15.5t3.5 34t4.5 45.5l5 50t4 47t1.5 36q0 -1 2 -5q4 2 6 3.5t6 3.5q0 1 -1 1.5t-1 1.5q5 2 10 2.5t11 2.5h26q11 -6 11.5 -15.5t4.5 -17.5v-52l-9 -72
v-55q0 -1 2 -1v-22q0 -44 20 -73t65 -31h38q8 0 24.5 3t33 9t29 14.5t12.5 19.5q0 1 -2 5v43q0 2 -1 1t-1 1v69q0 2 -0.5 0.5t-0.5 0.5v37q0 3 -1 12.5t-3 19t-4 18t-4 9.5q-3 7 -4 16t-6 11q1 11 -2 18t-3 17t7.5 11t17.5 6h22q20 0 30.5 -18t15 -41t5.5 -44.5t4 -28.5v-82
q0 -2 -0.5 -1t-1.5 0v-38q0 -2 0 -1t-1 0v-55h31q3 -7 4.5 -14.5t1.5 -12.5z" />
    <glyph glyph-name="v" unicode="v" horiz-adv-x="464" 
d="M411 337q0 -8 -7.5 -20t-20.5 -12q-2 0 -6 2q-8 -20 -17 -46.5t-19 -58.5q-12 -37 -18 -57.5t-10 -32.5t-7 -19t-8 -18q-8 -17 -18.5 -35.5t-20.5 -35.5q-1 -2 -6 -3t-10 -1q-12 0 -21 5.5t-18 16.5q-2 7 -4.5 13.5t-2.5 12.5q-1 20 -7 38t-14 32t-15.5 25t-10.5 17
q-2 3 -13 9v40q0 4 -5 4.5t-7 1.5q-2 2 -4.5 7.5t-8.5 4.5v21q-12 18 -20 39t-20 39q-3 7 -5 14.5t-6 14.5q-5 10 -9.5 14.5t-4.5 17.5t4 26t14 15l7 -1q1 -2 -1.5 -5t-4.5 -9q6 0 12 -2t12 -2q13 0 24 -5.5t20.5 -14t17.5 -18.5t14 -19q1 -5 1.5 -13t2.5 -10v-24
q0 -5 2 -12t3 -15q2 -14 4.5 -35t9.5 -40t19 -32.5t32 -13.5q5 0 7.5 -1t8.5 5q7 6 14 24.5t11 28.5q14 40 21.5 76.5t13.5 68.5q2 6 11 16t14 18q3 5 3.5 10.5t8.5 5.5q3 0 10 -3t15.5 -6.5t16.5 -5.5t14 -1v-23q0 -2 0.5 -1t1.5 1v-33z" />
    <glyph glyph-name="w" unicode="w" horiz-adv-x="632" 
d="M580 314q0 -1 -1.5 -6t-3.5 -11.5t-3.5 -12.5t-2.5 -9q-4 -15 -11.5 -36.5t-12.5 -41.5q-4 -14 -5.5 -30t-5.5 -29q-1 -3 -4 -7l-6 -8q0 -3 -2 -11t-2 -10v-25q0 -7 -2 -21t-7 -27.5t-13.5 -24t-22.5 -10.5q-12 0 -26 7l-18 9q-1 4 -2.5 6.5t-1.5 11.5q0 1 0.5 6.5
t1 11.5t1 11.5t0.5 6.5q0 7 -4.5 11t-11.5 7.5t-14 7.5t-13 11q-2 2 -4 13.5t-4 17.5q-3 12 -11.5 30t-22.5 22h-27q-5 0 -12.5 -5t-9.5 -6q-18 -13 -25.5 -33t-14.5 -40q-3 -10 -7 -26.5t-11.5 -32.5t-19 -27.5t-30.5 -11.5q-3 0 -5 0.5t-6 2.5q-5 11 -9 20.5t-9 17.5
q-8 13 -15 35.5t-14 46.5t-13.5 47t-12.5 37q-9 13 -21 30.5t-23 37t-18.5 41t-7.5 42.5q0 16 7.5 28t22.5 12q10 0 18 -10.5t13 -15.5q9 -1 13 -1t7 -0.5t5.5 -2.5t8.5 -7q7 -5 7.5 -18t3.5 -21v-48q0 -1 4 -5t9 -10t9 -12.5t4 -11.5q1 -2 3 -2t4 -1q4 -5 7 -10.5t5 -10.5
q0 -1 1.5 -5t3.5 -8.5t5 -8.5t6 -4t7.5 5t8.5 12t7 13t4 7q11 19 19 33t14 26t11 23t10 23t4.5 28.5t8.5 33.5q5 9 16 11.5t19 2.5q23 0 35.5 -12t20 -29.5t11.5 -37t9 -34.5q2 -4 10.5 -21.5t16.5 -31.5q1 -1 4 -7t7 -12.5t8.5 -11.5t8.5 -5q5 0 12 9.5t14 21t12 22t5 13.5
v30q0 2 -1 1t-1 1v53q0 7 6 18t14 11q2 0 8.5 -1.5t15 -3.5t17 -3.5t13.5 -0.5q0 -3 0.5 -8t3.5 -7v-45z" />
    <glyph glyph-name="x" unicode="x" horiz-adv-x="470" 
d="M412 47q0 -7 -4.5 -17.5t-12 -20.5t-16.5 -16.5t-17 -6.5q-13 0 -20 12q-13 22 -21.5 34.5t-15.5 21.5t-14.5 19t-17.5 27q-2 8 -6.5 18t-5.5 21q-4 -2 -10 -2q-2 0 -8.5 1t-8.5 1q-9 0 -14 -4.5t-8 -11.5t-4.5 -15t-3.5 -15t-4.5 -15.5t-8.5 -21.5q-14 -8 -28 -22.5
t-28 -31.5q-2 0 -5 -0.5t-5 -0.5q-5 0 -11 0.5t-14 3.5h-28v27q0 2 -1 1t-1 1v35q0 6 9 12t21 13t23 16t14 19q7 5 14 10.5t11 10.5q1 5 0.5 12.5t1.5 12.5q2 3 4.5 7t2.5 6v24q0 2 -2.5 7t-6 11t-6.5 12l-4 8q-5 8 -12 17.5t-15 17.5q-5 5 -11 19t-14 22q-2 3 -7 6t-10 7
t-9 10t-4 14t4 17.5t9 18.5t9.5 17.5t4.5 15.5q8 2 11 2q6 0 14 -5t16.5 -11.5t14.5 -12.5t7 -8q9 -13 12 -29.5t13 -31.5q7 -11 20 -24t17 -29q5 1 10.5 1t11.5 1q7 7 12 18t9.5 22t8 21.5t6.5 16.5q10 4 17 14t14.5 21t16.5 19.5t24 8.5q14 0 26 -10t18 -21v-22
q0 -4 -3.5 -10.5t-8 -12.5t-8.5 -11t-5 -5q-10 -4 -22.5 -18t-24 -31.5t-19.5 -36.5t-8 -34q0 -34 18 -54t39.5 -36t39.5 -32.5t18 -44.5z" />
    <glyph glyph-name="y" unicode="y" horiz-adv-x="482" 
d="M439 358q0 -2 -2.5 -11t-5.5 -19.5t-6.5 -21t-5.5 -15.5q-5 -14 -12.5 -32t-16 -36.5t-17 -35.5t-15.5 -30q-30 -57 -48 -93.5t-26 -52.5q-11 -23 -18.5 -40t-12 -29.5t-7.5 -23t-6 -20.5q-2 -6 -3.5 -18t-4.5 -26t-7.5 -28.5t-12.5 -25.5q-12 -17 -22.5 -33.5
t-30.5 -16.5q-11 0 -20 3.5t-18 5.5q-5 3 -5.5 8t-2.5 8v24q0 3 4 11l4 8q9 13 21.5 25t21.5 35q2 5 4 16.5t5 20.5q1 2 6 16t11 31.5t10.5 34t4.5 23.5v43q0 4 -2.5 10t-5.5 12.5t-5.5 11.5t-3.5 6q-14 23 -29 45.5t-26 48.5q-8 9 -14 21l-12 24q-12 24 -19 42.5t-18 34.5
q-9 14 -14.5 19.5t-8 8.5t-3.5 5.5t-1 9.5q0 12 7 25t9 21h33q16 0 30.5 -10.5t23.5 -22.5q20 -56 41 -103.5t50 -92.5q5 -8 8.5 -8t5.5 -2q17 2 26 11.5t17 19.5q13 16 21 36t24 51q1 2 7 12.5t13 24t12.5 27t5.5 21.5v25q0 2 -0.5 2t-0.5 2q7 2 21 3t16 1q11 0 16 -3.5
t10 -16.5v-27z" />
    <glyph glyph-name="z" unicode="z" horiz-adv-x="458" 
d="M387 384q0 -4 -3.5 -14t-5.5 -12q-16 -18 -41 -41.5t-45 -46.5q-8 -10 -14.5 -23t-17.5 -28q-7 -9 -15 -19t-14 -21q-1 -2 -5.5 -11.5t-9 -20.5t-8.5 -20t-4 -11q0 -6 5.5 -11t12 -9t13 -6.5t9.5 -3.5h32q3 0 9.5 1t7.5 3h31q11 -6 17.5 -9.5t11 -6.5t10 -6t15.5 -8
q2 -5 3 -13.5t1 -10.5q0 -16 -5 -22t-13.5 -8t-20 -2t-23.5 -4h-46q-2 0 -1 1t-1 1h-23q-2 0 -25.5 3t-52.5 7t-55 7t-33 4q-1 2 -6.5 17t-5.5 29q0 18 12 33t28 27t32 20.5t23 14.5q0 8 -2 13.5t-2 10.5v7q7 5 22 18.5t30 31t26.5 36t11.5 33.5v23q0 7 -3.5 14t-6.5 15h-39
q-2 0 -0.5 -1t-0.5 -1h-57q-7 0 -17.5 2.5t-20.5 6.5t-18 7.5t-11 5.5q-2 2 -3 5.5t-3 6.5v22q0 2 3 11.5t5 13.5q4 6 8 6.5t6 2.5l28 -1l-7 -1l71 -1q3 0 3 1h30q2 0 1 1t1 1h76q10 0 23 -3t25.5 -7.5t22 -8.5t12.5 -6q1 -5 3 -8.5t4 -8.5v-28z" />
    <glyph glyph-name="braceleft" unicode="{" horiz-adv-x="271" 
 />
    <glyph glyph-name="bar" unicode="|" horiz-adv-x="271" 
 />
    <glyph glyph-name="braceright" unicode="}" horiz-adv-x="271" 
 />
    <glyph glyph-name="asciitilde" unicode="~" horiz-adv-x="271" 
 />
    <glyph glyph-name="nonbreakingspace" unicode="&#xa0;" horiz-adv-x="271" 
 />
    <glyph glyph-name="dieresis" unicode="&#xa8;" 
d="M382 630q0 -25 -19 -45t-46 -20q-15 0 -22 3.5t-10.5 9.5t-5.5 14.5t-6 19.5l9 34q0 13 11 29t26 14q0 2 3.5 1t7 -2.5t6.5 -2t3 0.5q16 -7 25 -11.5t13 -10t4.5 -13t0.5 -21.5zM209 650q0 -12 -5 -27t-13.5 -28t-20 -21.5t-25.5 -8.5q-15 0 -22 2.5t-10 7.5t-5 13t-6 19
l-9 35q0 6 3.5 14.5t8.5 15t12.5 11t14.5 3.5q0 2 4.5 2.5t9.5 1.5t9 2t4 2q16 -7 26 -10t15 -6t7 -8.5t2 -19.5z" />
    <glyph glyph-name="acute" unicode="&#xb4;" horiz-adv-x="525" 
d="M383 637q0 -8 -1.5 -6.5t-4.5 -5.5q-4 -10 -11.5 -13.5t-16.5 -5.5t-19 -6t-21 -15q-8 -3 -16 -5.5t-16 -8.5q-4 -3 -12 -6.5t-15 -8.5q-2 -1 -9 -8t-15.5 -15t-16.5 -14t-13 -6t-7.5 1t-8.5 6q-2 5 -2.5 11t-1.5 11q0 1 -3.5 9t-3.5 9q0 12 11 15.5t18 7.5q5 3 11.5 8
t13.5 9q15 9 17.5 12.5t11.5 5.5q13 3 26.5 6.5t26.5 13.5q4 3 8.5 9t10 12t12 11t15.5 6q1 1 1 2v2q2 -1 7 -5.5t10 -11t9.5 -13.5t4.5 -13z" />
    <glyph glyph-name="Agrave" unicode="&#xc0;" horiz-adv-x="580" 
d="M384 296q0 6 -6 31.5t-15.5 54t-20.5 51.5t-22 23h-29q3 -8 -0.5 -13.5t-9 -10t-10.5 -9.5t-5 -13v-23h-5v-8t-5 -4q-1 -5 0 -9.5t-1 -9.5q-3 -8 -8 -15t-9 -12v-24q-12 -13 -16.5 -16.5t-4.5 -15.5q0 -2 1 -11.5t3 -14.5h9q2 0 1 0.5t1 0.5h26q2 0 1 -0.5t1 -0.5h30
q2 0 1 -1t1 -1h60q8 4 16 4.5t16 2.5v44zM545 66q0 -11 -13.5 -19t-24.5 -8q-3 0 -8.5 1l-11 2t-10 2.5t-5.5 1.5q0 2 1 2t1 2t-3 6t-6 7q-2 -1 -5 -1q-4 0 -8 3.5t-9 3.5q1 9 -1 15.5t-5.5 14t-8.5 19t-11 31.5q-3 3 -10 3q-2 0 -6.5 -1t-6.5 -1t-5 1t-6 1q-2 5 -5.5 13
t-1.5 17q-5 -2 -10.5 -3t-11.5 -3h-22q-2 0 -0.5 -1t-0.5 -1h-110q-9 0 -20.5 -2.5t-22 -6t-18.5 -7t-9 -5.5l-7.5 -10t-8.5 -13.5t-5.5 -14.5t2.5 -13q-3 -2 -4.5 -10t-6.5 -11q-2 -2 -5.5 -2.5t-5.5 -2.5t-5 -15t-3 -21v-29h-25q-2 0 -5 -1t-5 -1q-19 0 -23 5.5t-9 22.5
v31q0 3 1 8t1 12q1 0 1.5 -1t2.5 -1t5.5 4.5t7.5 4.5q3 15 6 25.5t6 19t5 15t2 14.5h6.5t6.5 2q5 5 7.5 14t7.5 14q11 11 17.5 21.5t10.5 21t7.5 21.5t7.5 23q2 3 1 8.5t-2 9.5q-3 14 6.5 25.5t18.5 22.5q4 5 6.5 13t4.5 17.5t4.5 19.5t5.5 18q1 2 5.5 6.5t9.5 10.5l10 12
t6 10l9 25.5t4.5 13.5t2 8.5t2.5 9.5q0 2 3 8t6.5 13.5t6 14t2.5 9.5q0 9 -2 11.5t-2 7.5t4.5 7.5t7.5 2.5q2 0 5.5 -1t5.5 -1q9 0 14 4h22q6 0 14 -3.5t15.5 -8t14 -10t9.5 -9.5q14 -21 23 -44t13 -37q3 -11 9 -38t12 -49q3 -12 9 -25.5t12 -26.5t10 -22.5t4 -14.5
q0 -2 -1.5 -14t-1.5 -14q0 -8 4 -14.5t8 -11.5q6 -9 13.5 -23t14 -31t11 -35.5t4.5 -37.5q4 2 6 2q13 0 21 -13t10 -21v-25zM398 679q0 -5 -4.5 -12t-10 -13.5t-10.5 -11t-6 -5.5q-8 2 -17.5 6t-16.5 15q-13 23 -33.5 30t-40.5 12q-15 8 -33 22.5t-38 19.5q-3 5 -3.5 6.5
t-0.5 6.5t2 9.5t5 13.5q1 2 1 6.5v8.5q8 8 11 7.5t8 -0.5q13 0 20 -8.5t20 -19.5q18 -16 27 -20.5t20 -12.5q4 -2 10.5 -4t11.5 -4q4 -2 8 -6.5t9 -6.5q16 -8 31.5 -10t21.5 -16q1 -1 4.5 -5t3.5 -8z" />
    <glyph glyph-name="Aacute" unicode="&#xc1;" horiz-adv-x="580" 
d="M182 679q0 4 3.5 8t4.5 5q3 8 8.5 11t13 5t15.5 4t16 6q5 2 9 6.5t8 6.5q5 2 11.5 4t10.5 4q11 9 20 13t27 20q12 11 19.5 19.5t20.5 8.5q5 0 8 0.5t11 -7.5v-8t1 -7q3 -9 5 -13t2 -10q0 -5 -0.5 -6.5t-3.5 -6.5q-20 -5 -38 -19t-33 -23q-20 -5 -40.5 -12t-33.5 -30
q-7 -11 -16.5 -15t-17.5 -6q-1 1 -6 5.5t-10.5 11t-10 13.5t-4.5 12zM384 296q0 6 -6 31.5t-15.5 54t-20.5 51.5t-22 23h-29q3 -8 -0.5 -13.5t-9 -10t-10.5 -9.5t-5 -13v-23h-5v-8t-5 -4q-1 -5 0 -9.5t-1 -9.5q-3 -8 -8 -15t-9 -12v-24q-12 -13 -16.5 -16.5t-4.5 -15.5
q0 -2 1 -11.5t3 -14.5h9q2 0 1 0.5t1 0.5h26q2 0 1 -0.5t1 -0.5h30q2 0 1 -1t1 -1h60q8 4 16 4.5t16 2.5v44zM545 66q0 -11 -13.5 -19t-24.5 -8q-3 0 -8.5 1l-11 2t-10 2.5t-5.5 1.5q0 2 1 2t1 2t-3 6t-6 7q-2 -1 -5 -1q-4 0 -8 3.5t-9 3.5q1 9 -1 15.5t-5.5 14t-8.5 19
t-11 31.5q-3 3 -10 3q-2 0 -6.5 -1t-6.5 -1t-5 1t-6 1q-2 5 -5.5 13t-1.5 17q-5 -2 -10.5 -3t-11.5 -3h-22q-2 0 -0.5 -1t-0.5 -1h-110q-9 0 -20.5 -2.5t-22 -6t-18.5 -7t-9 -5.5l-7.5 -10t-8.5 -13.5t-5.5 -14.5t2.5 -13q-3 -2 -4.5 -10t-6.5 -11q-2 -2 -5.5 -2.5
t-5.5 -2.5t-5 -15t-3 -21v-29h-25q-2 0 -5 -1t-5 -1q-19 0 -23 5.5t-9 22.5v31q0 3 1 8t1 12q1 0 1.5 -1t2.5 -1t5.5 4.5t7.5 4.5q3 15 6 25.5t6 19t5 15t2 14.5h6.5t6.5 2q5 5 7.5 14t7.5 14q11 11 17.5 21.5t10.5 21t7.5 21.5t7.5 23q2 3 1 8.5t-2 9.5q-3 14 6.5 25.5
t18.5 22.5q4 5 6.5 13t4.5 17.5t4.5 19.5t5.5 18q1 2 5.5 6.5t9.5 10.5l10 12t6 10l9 25.5t4.5 13.5t2 8.5t2.5 9.5q0 2 3 8t6.5 13.5t6 14t2.5 9.5q0 9 -2 11.5t-2 7.5t4.5 7.5t7.5 2.5q2 0 5.5 -1t5.5 -1q9 0 14 4h22q6 0 14 -3.5t15.5 -8t14 -10t9.5 -9.5q14 -21 23 -44
t13 -37q3 -11 9 -38t12 -49q3 -12 9 -25.5t12 -26.5t10 -22.5t4 -14.5q0 -2 -1.5 -14t-1.5 -14q0 -8 4 -14.5t8 -11.5q6 -9 13.5 -23t14 -31t11 -35.5t4.5 -37.5q4 2 6 2q13 0 21 -13t10 -21v-25z" />
    <glyph glyph-name="Acircumflex" unicode="&#xc2;" horiz-adv-x="580" 
d="M384 296q0 6 -6 31.5t-15.5 54t-20.5 51.5t-22 23h-29q3 -8 -0.5 -13.5t-9 -10t-10.5 -9.5t-5 -13v-23h-5v-8t-5 -4q-1 -5 0 -9.5t-1 -9.5q-3 -8 -8 -15t-9 -12v-24q-12 -13 -16.5 -16.5t-4.5 -15.5q0 -2 1 -11.5t3 -14.5h9q2 0 1 0.5t1 0.5h26q2 0 1 -0.5t1 -0.5h30
q2 0 1 -1t1 -1h60q8 4 16 4.5t16 2.5v44zM545 66q0 -11 -13.5 -19t-24.5 -8q-3 0 -8.5 1l-11 2t-10 2.5t-5.5 1.5q0 2 1 2t1 2t-3 6t-6 7q-2 -1 -5 -1q-4 0 -8 3.5t-9 3.5q1 9 -1 15.5t-5.5 14t-8.5 19t-11 31.5q-3 3 -10 3q-2 0 -6.5 -1t-6.5 -1t-5 1t-6 1q-2 5 -5.5 13
t-1.5 17q-5 -2 -10.5 -3t-11.5 -3h-22q-2 0 -0.5 -1t-0.5 -1h-110q-9 0 -20.5 -2.5t-22 -6t-18.5 -7t-9 -5.5l-7.5 -10t-8.5 -13.5t-5.5 -14.5t2.5 -13q-3 -2 -4.5 -10t-6.5 -11q-2 -2 -5.5 -2.5t-5.5 -2.5t-5 -15t-3 -21v-29h-25q-2 0 -5 -1t-5 -1q-19 0 -23 5.5t-9 22.5
v31q0 3 1 8t1 12q1 0 1.5 -1t2.5 -1t5.5 4.5t7.5 4.5q3 15 6 25.5t6 19t5 15t2 14.5h6.5t6.5 2q5 5 7.5 14t7.5 14q11 11 17.5 21.5t10.5 21t7.5 21.5t7.5 23q2 3 1 8.5t-2 9.5q-3 14 6.5 25.5t18.5 22.5q4 5 6.5 13t4.5 17.5t4.5 19.5t5.5 18q1 2 5.5 6.5t9.5 10.5l10 12
t6 10l9 25.5t4.5 13.5t2 8.5t2.5 9.5q0 2 3 8t6.5 13.5t6 14t2.5 9.5q0 9 -2 11.5t-2 7.5t4.5 7.5t7.5 2.5q2 0 5.5 -1t5.5 -1q9 0 14 4h22q6 0 14 -3.5t15.5 -8t14 -10t9.5 -9.5q14 -21 23 -44t13 -37q3 -11 9 -38t12 -49q3 -12 9 -25.5t12 -26.5t10 -22.5t4 -14.5
q0 -2 -1.5 -14t-1.5 -14q0 -8 4 -14.5t8 -11.5q6 -9 13.5 -23t14 -31t11 -35.5t4.5 -37.5q4 2 6 2q13 0 21 -13t10 -21v-25zM419 714q0 -13 -6.5 -24t-10.5 -13q-5 -2 -18 -7t-18 -5h-5t-5 2q-4 4 -12 10t-15.5 12t-13 10l-5.5 4q-10 0 -18.5 -5.5t-17.5 -12t-18.5 -12
t-20.5 -5.5q-6 0 -14 4.5t-15 11t-12 14t-5 13.5t5.5 12t13 10.5t15 7.5t10.5 3q1 0 3 -2t4 -2q5 0 12 6t14.5 13.5t15 13.5t14.5 6t14 -3.5l11 -5.5q2 -4 7 -6.5t9 -5.5q8 -6 17.5 -12.5t20.5 -11.5q6 -3 14 -4t14.5 -2t11 -4t4.5 -10z" />
    <glyph glyph-name="Atilde" unicode="&#xc3;" horiz-adv-x="580" 
d="M384 296q0 6 -6 31.5t-15.5 54t-20.5 51.5t-22 23h-29q3 -8 -0.5 -13.5t-9 -10t-10.5 -9.5t-5 -13v-23h-5v-8t-5 -4q-1 -5 0 -9.5t-1 -9.5q-3 -8 -8 -15t-9 -12v-24q-12 -13 -16.5 -16.5t-4.5 -15.5q0 -2 1 -11.5t3 -14.5h9q2 0 1 0.5t1 0.5h26q2 0 1 -0.5t1 -0.5h30
q2 0 1 -1t1 -1h60q8 4 16 4.5t16 2.5v44zM545 66q0 -11 -13.5 -19t-24.5 -8q-3 0 -8.5 1l-11 2t-10 2.5t-5.5 1.5q0 2 1 2t1 2t-3 6t-6 7q-2 -1 -5 -1q-4 0 -8 3.5t-9 3.5q1 9 -1 15.5t-5.5 14t-8.5 19t-11 31.5q-3 3 -10 3q-2 0 -6.5 -1t-6.5 -1t-5 1t-6 1q-2 5 -5.5 13
t-1.5 17q-5 -2 -10.5 -3t-11.5 -3h-22q-2 0 -0.5 -1t-0.5 -1h-110q-9 0 -20.5 -2.5t-22 -6t-18.5 -7t-9 -5.5l-7.5 -10t-8.5 -13.5t-5.5 -14.5t2.5 -13q-3 -2 -4.5 -10t-6.5 -11q-2 -2 -5.5 -2.5t-5.5 -2.5t-5 -15t-3 -21v-29h-25q-2 0 -5 -1t-5 -1q-19 0 -23 5.5t-9 22.5
v31q0 3 1 8t1 12q1 0 1.5 -1t2.5 -1t5.5 4.5t7.5 4.5q3 15 6 25.5t6 19t5 15t2 14.5h6.5t6.5 2q5 5 7.5 14t7.5 14q11 11 17.5 21.5t10.5 21t7.5 21.5t7.5 23q2 3 1 8.5t-2 9.5q-3 14 6.5 25.5t18.5 22.5q4 5 6.5 13t4.5 17.5t4.5 19.5t5.5 18q1 2 5.5 6.5t9.5 10.5l10 12
t6 10l9 25.5t4.5 13.5t2 8.5t2.5 9.5q0 2 3 8t6.5 13.5t6 14t2.5 9.5q0 9 -2 11.5t-2 7.5t4.5 7.5t7.5 2.5q2 0 5.5 -1t5.5 -1q9 0 14 4h22q6 0 14 -3.5t15.5 -8t14 -10t9.5 -9.5q14 -21 23 -44t13 -37q3 -11 9 -38t12 -49q3 -12 9 -25.5t12 -26.5t10 -22.5t4 -14.5
q0 -2 -1.5 -14t-1.5 -14q0 -8 4 -14.5t8 -11.5q6 -9 13.5 -23t14 -31t11 -35.5t4.5 -37.5q4 2 6 2q13 0 21 -13t10 -21v-25zM180 711q3 1 7 1h6t4 -1t0.5 0.5t-0.5 4t2 4.5t8 1q9 -2 9.5 1t6.5 7q7 4 11.5 8.5t13.5 4.5h31q7 0 15 -5q4 -3 10 -5l26 -8l6 -6l4.5 -4.5
t3.5 -4.5q2 -4 7 -5t16 -9q5 -4 8.5 -5t5.5 -1q3 0 3 1q1 0 3 1q4 2 8 7q5 5 11.5 8.5t8.5 18.5q1 11 30 11q7 0 10.5 -4.5t4.5 -10t1 -11v-7.5q0 -4 -2.5 -14t-4.5 -15t-5.5 -9t-8.5 -12t-15.5 -12.5t-13.5 -6.5q-4 -2 -17 -2h-15l-37 16q-12 5 -16.5 7.5t-6.5 3.5t-2.5 2
t-5.5 4q-9 5 -13.5 8.5t-18.5 7.5q-7 2 -9.5 2.5t-4 0.5t-2.5 0.5t-4 0.5q-7 2 -9.5 -2t-6.5 -6t-11.5 -7t-9.5 -10q-2 -6 -7 -10t-12 -11q-6 -6 -10 -6q-2 0 -4 1q-3 1 -7 2q-3 1 -7 1.5t-9 1.5q-4 1 -5.5 2t-2.5 2t-2 3t-5 5q-7 5 -4 11.5t3 11.5t6 13q3 4 5 8l14 12z" />
    <glyph glyph-name="Adieresis" unicode="&#xc4;" horiz-adv-x="580" 
d="M384 296q0 6 -6 31.5t-15.5 54t-20.5 51.5t-22 23h-29q3 -8 -0.5 -13.5t-9 -10t-10.5 -9.5t-5 -13v-23h-5v-8t-5 -4q-1 -5 0 -9.5t-1 -9.5q-3 -8 -8 -15t-9 -12v-24q-12 -13 -16.5 -16.5t-4.5 -15.5q0 -2 1 -11.5t3 -14.5h9q2 0 1 0.5t1 0.5h26q2 0 1 -0.5t1 -0.5h30
q2 0 1 -1t1 -1h60q8 4 16 4.5t16 2.5v44zM545 66q0 -11 -13.5 -19t-24.5 -8q-3 0 -8.5 1l-11 2t-10 2.5t-5.5 1.5q0 2 1 2t1 2t-3 6t-6 7q-2 -1 -5 -1q-4 0 -8 3.5t-9 3.5q1 9 -1 15.5t-5.5 14t-8.5 19t-11 31.5q-3 3 -10 3q-2 0 -6.5 -1t-6.5 -1t-5 1t-6 1q-2 5 -5.5 13
t-1.5 17q-5 -2 -10.5 -3t-11.5 -3h-22q-2 0 -0.5 -1t-0.5 -1h-110q-9 0 -20.5 -2.5t-22 -6t-18.5 -7t-9 -5.5l-7.5 -10t-8.5 -13.5t-5.5 -14.5t2.5 -13q-3 -2 -4.5 -10t-6.5 -11q-2 -2 -5.5 -2.5t-5.5 -2.5t-5 -15t-3 -21v-29h-25q-2 0 -5 -1t-5 -1q-19 0 -23 5.5t-9 22.5
v31q0 3 1 8t1 12q1 0 1.5 -1t2.5 -1t5.5 4.5t7.5 4.5q3 15 6 25.5t6 19t5 15t2 14.5h6.5t6.5 2q5 5 7.5 14t7.5 14q11 11 17.5 21.5t10.5 21t7.5 21.5t7.5 23q2 3 1 8.5t-2 9.5q-3 14 6.5 25.5t18.5 22.5q4 5 6.5 13t4.5 17.5t4.5 19.5t5.5 18q1 2 5.5 6.5t9.5 10.5l10 12
t6 10l9 25.5t4.5 13.5t2 8.5t2.5 9.5q0 2 3 8t6.5 13.5t6 14t2.5 9.5q0 9 -2 11.5t-2 7.5t4.5 7.5t7.5 2.5q2 0 5.5 -1t5.5 -1q9 0 14 4h22q6 0 14 -3.5t15.5 -8t14 -10t9.5 -9.5q14 -21 23 -44t13 -37q3 -11 9 -38t12 -49q3 -12 9 -25.5t12 -26.5t10 -22.5t4 -14.5
q0 -2 -1.5 -14t-1.5 -14q0 -8 4 -14.5t8 -11.5q6 -9 13.5 -23t14 -31t11 -35.5t4.5 -37.5q4 2 6 2q13 0 21 -13t10 -21v-25zM433 705q0 -25 -19 -45t-46 -20q-15 0 -22 3.5t-10.5 9.5t-5.5 14.5t-6 19.5l9 34q0 13 11 29t26 14q0 2 3.5 1t7 -2.5t6.5 -2t3 0.5
q16 -7 25 -11.5t13 -10t4.5 -13t0.5 -21.5zM260 725q0 -12 -5 -27t-13.5 -28t-20 -21.5t-25.5 -8.5q-15 0 -22 2.5t-10 7.5t-5 13t-6 19l-9 35q0 6 3.5 14.5t8.5 15t12.5 11t14.5 3.5q0 2 4.5 2.5t9.5 1.5t9 2t4 2q16 -7 26 -10t15 -6t7 -8.5t2 -19.5z" />
    <glyph glyph-name="Aring" unicode="&#xc5;" horiz-adv-x="580" 
d="M384 296q0 6 -6 31.5t-15.5 54t-20.5 51.5t-22 23h-29q3 -8 -0.5 -13.5t-9 -10t-10.5 -9.5t-5 -13v-23h-5v-8t-5 -4q-1 -5 0 -9.5t-1 -9.5q-3 -8 -8 -15t-9 -12v-24q-12 -13 -16.5 -16.5t-4.5 -15.5q0 -2 1 -11.5t3 -14.5h9q2 0 1 0.5t1 0.5h26q2 0 1 -0.5t1 -0.5h30
q2 0 1 -1t1 -1h60q8 4 16 4.5t16 2.5v44zM545 66q0 -11 -13.5 -19t-24.5 -8q-3 0 -8.5 1l-11 2t-10 2.5t-5.5 1.5q0 2 1 2t1 2t-3 6t-6 7q-2 -1 -5 -1q-4 0 -8 3.5t-9 3.5q1 9 -1 15.5t-5.5 14t-8.5 19t-11 31.5q-3 3 -10 3q-2 0 -6.5 -1t-6.5 -1t-5 1t-6 1q-2 5 -5.5 13
t-1.5 17q-5 -2 -10.5 -3t-11.5 -3h-22q-2 0 -0.5 -1t-0.5 -1h-110q-9 0 -20.5 -2.5t-22 -6t-18.5 -7t-9 -5.5l-7.5 -10t-8.5 -13.5t-5.5 -14.5t2.5 -13q-3 -2 -4.5 -10t-6.5 -11q-2 -2 -5.5 -2.5t-5.5 -2.5t-5 -15t-3 -21v-29h-25q-2 0 -5 -1t-5 -1q-19 0 -23 5.5t-9 22.5
v31q0 3 1 8t1 12q1 0 1.5 -1t2.5 -1t5.5 4.5t7.5 4.5q3 15 6 25.5t6 19t5 15t2 14.5h6.5t6.5 2q5 5 7.5 14t7.5 14q11 11 17.5 21.5t10.5 21t7.5 21.5t7.5 23q2 3 1 8.5t-2 9.5q-3 14 6.5 25.5t18.5 22.5q4 5 6.5 13t4.5 17.5t4.5 19.5t5.5 18q1 2 5.5 6.5t9.5 10.5l10 12
t6 10l9 25.5t4.5 13.5t2 8.5t2.5 9.5q0 2 3 8t6.5 13.5t6 14t2.5 9.5q0 9 -2 11.5t-2 7.5t4.5 7.5t7.5 2.5q2 0 5.5 -1t5.5 -1q9 0 14 4h22q6 0 14 -3.5t15.5 -8t14 -10t9.5 -9.5q14 -21 23 -44t13 -37q3 -11 9 -38t12 -49q3 -12 9 -25.5t12 -26.5t10 -22.5t4 -14.5
q0 -2 -1.5 -14t-1.5 -14q0 -8 4 -14.5t8 -11.5q6 -9 13.5 -23t14 -31t11 -35.5t4.5 -37.5q4 2 6 2q13 0 21 -13t10 -21v-25zM267 756q1 -1 1 -4v-12q2 -4 2.5 -11.5t1.5 -11.5q1 -2 5 -4t3 -4q-2 -2 1.5 -3.5t8.5 -3.5q13 -5 26 -5l10 2q4 1 9 2q7 6 16 23t9 30v14
q0 16 -13 27.5t-35 11.5h-10q-8 0 -21 -7.5t-13 -19.5v-13q0 -3 -1 -4v-7zM310 858l19 -1q12 -1 25.5 -5.5t25.5 -13t19.5 -21t7.5 -29.5v-14q0 -4 -2 -5l2 -1v-4q0 -5 0.5 -12t0.5 -17q-1 -24 -7.5 -43.5t-30.5 -34.5q-8 -2 -15.5 -4t-16.5 -4q-6 0 -9 -0.5t-5 -1t-5 -1
t-8 0.5q-5 -2 -9 -0.5t-3 -0.5l-14 8q-8 5 -17.5 9.5t-17.5 9t-14.5 9.5t-9.5 12q-5 12 -9.5 21t-2.5 23q2 6 1 8v22q0 17 4 27.5t9 19.5l8 8q8 8 8 9l4 6q3 3 6 5t7 5q9 8 14.5 8.5t17.5 -0.5q3 0 4 1h12z" />
    <glyph glyph-name="AE" unicode="&#xc6;" horiz-adv-x="836" 
d="M386 288q1 11 0.5 37.5t-3.5 54.5t-9 49.5t-16 22.5l-29 4q2 -9 -3 -14t-11.5 -9t-13 -8.5t-8.5 -11.5l-5 -23h-5q-1 -3 -1.5 -7.5t-6.5 -3.5q-2 -5 -2 -9.5t-3 -9.5q-5 -8 -11.5 -14t-11.5 -11l-6 -24q-14 -11 -19.5 -14t-8.5 -15q0 -2 -1 -11.5t-1 -15.5l9 -1
q2 0 1 0.5t1 0.5l26 -3q2 -1 1 -1t1 -1l30 -3q2 -1 1 -1.5t1 -1.5l60 -7q9 2 17 2t16 1l9 37q-1 2 -1 3t-1 2q1 2 2 3t2 3zM401 44q-5 5 -9 5q3 9 3 16t-2 15t-4 20t-4 33q-3 4 -10 4q-2 0 -6.5 -0.5t-6.5 0.5q-2 0 -5 1.5t-6 1.5q0 5 -2.5 13.5t2.5 17.5q-5 -1 -11 -2
t-12 -1l-22 2q-2 1 -1 -0.5t-1 -1.5l-110 14q-9 1 -21 0t-23 -3t-19.5 -4.5t-10.5 -4.5q-4 -3 -10 -9t-11.5 -13t-9 -14t-0.5 -13q-2 -1 -3 -5.5t-2 -10t-2 -10.5t-4 -6q-2 -2 -5.5 -2t-6.5 -2q-1 -1 -1 -9t-0.5 -17.5t-1.5 -18.5t-4 -12l-30 -25l-25 3q-2 0 -6.5 2t-6.5 2
q-20 3 -22 9t-4 23l7 31q1 4 3 8.5t4 11.5l1 -1q1 -1 2 -1q2 -1 6.5 3.5t8.5 3.5q13 30 29 56t19 42q2 -1 6.5 -1.5t7.5 1.5q7 4 11 13t10 13q27 19 38 39t25 43q2 3 2.5 8.5t0.5 9.5q0 14 12.5 24.5t23.5 20.5q5 4 9.5 12t9 17.5l9 19t9.5 16.5q1 2 6 6t12 9.5t13 11t9 8.5
q10 16 15 24.5t7.5 13.5l4 8l4.5 9q1 2 5 7.5t9 12.5t9 13.5t5 9.5q2 9 0.5 11.5t-0.5 7.5q2 5 7 7t8 2q2 0 5 -1.5l5 -2.5q11 0 15 3l22 -3q11 -2 26 -8t21 -15l38 8q1 0 6.5 -1t13 -2.5t14.5 -2.5t10 -1q5 1 12 1.5t14 2.5q5 1 10.5 0.5t9.5 1.5h23q2 0 1 0.5t1 0.5h97
q2 0 3 -1h25q2 0 8.5 1t15.5 2t18 1.5t16 -1.5q2 -1 3.5 -1.5t3.5 -1.5q3 -1 4 -6t3 -9v-31q0 -3 -2 -11.5t2 -9.5h-18q-2 0 -1 1t-1 1l-68 -9q-1 0 -14 2.5t-28.5 5.5t-29.5 5.5t-17 2.5h-27q-2 0 -1 0.5t-1 0.5h-37q-2 0 -1 -0.5t-1 -0.5h-28q-6 0 -16 -1.5t-17 -3.5
q-3 -1 -9 -1.5t-8 -3.5q-1 -5 -4.5 -20t-5.5 -28q0 -15 -0.5 -38.5t1.5 -42.5v-7.5t1 -8.5q8 -20 23.5 -36t34.5 -16h50q3 0 8 1t10 3q4 1 9.5 0.5t8.5 1.5h24q1 0 3 0.5t3 0.5q10 0 21 -1.5t21 -4.5t18.5 -7t12.5 -8v-22q0 -9 -13 -11.5t-19 -4.5h-60q-4 0 -14.5 -2l-21 -4
t-19 -4.5t-10.5 -2.5h-28q-2 0 -1 1t-1 1h-56q1 -5 2.5 -9t3.5 -8q4 -10 8 -25t7 -33t3 -37t-4 -38q4 2 6 2q11 -2 16.5 -14t6.5 -21h12q2 0 1 -1t1 -1h42q2 0 1 1t1 1h27q3 0 25 2t47.5 5t47.5 6t27 4h12q-1 -10 8 -14.5t16 -8.5q0 -7 2 -12t2 -12q0 -17 -7 -26t-26 -9
q-3 0 -5.5 -0.5t-4.5 1.5h-85q-2 0 -1 -0.5t-1 -0.5h-26q-2 0 -1 -1t-1 -1h-26q-2 0 -1 -1t-1 -1h-83q-14 0 -31 4t-32 9t-25.5 10t-12.5 6v22z" />
    <glyph glyph-name="Ccedilla" unicode="&#xc7;" horiz-adv-x="522" 
d="M463 499q0 -18 -10.5 -35t-30.5 -17q-22 0 -36.5 14.5t-27.5 31.5t-26.5 31t-33.5 13h-32q-7 0 -15 -1t-14 -3.5t-9 -7t0 -10.5q-26 -1 -45.5 -16t-32.5 -37t-19.5 -48.5t-6.5 -50.5v-62q0 -2 0.5 -1t1.5 1v-28q0 -2 0.5 -1t1.5 1v-22q0 -3 0.5 -9.5t2.5 -11.5q1 -3 0 -9
t2 -10v-22q0 -1 1 -1.5t1 -5.5q14 -2 26 -15q5 -7 9.5 -20.5t9.5 -21.5q7 -11 18.5 -17.5t12.5 -18.5q2 -1 3.5 -1t3.5 -2h36q2 0 1 -0.5t1 -0.5h30q32 0 51.5 19t30.5 42h18q11 14 24 24v11h35q1 -6 2 -14t1.5 -15.5t1 -13t0.5 -6.5q0 -13 -7.5 -27.5t-18 -28t-22 -24.5
t-19.5 -16q-6 -4 -16.5 -7t-22.5 -5.5t-23 -4.5t-17 -3h-59q-24 0 -51 10t-51 26t-41 37t-20 43q-1 2 -4.5 6.5t-7.5 9.5q-4 11 -4 26t-3 27v22q0 2 -1 1t-1 1v33q0 2 -1 1t-1 1v49q0 2 1 1t1 1v30q0 21 6.5 52.5t15.5 62t18.5 54.5t15.5 30q2 2 4 7t5 10.5t7 9.5t8 4
q2 0 12 -2t12 -2q10 0 12.5 4t12.5 10q5 1 11.5 2.5t13.5 3.5q2 2 5 7t6 5q1 0 3 -2h31q2 0 20.5 -2.5t40 -5.5t40 -5.5t20.5 -2.5q2 -1 4.5 -2.5t4.5 -2.5q5 -7 8.5 -14t5.5 -15q22 0 40.5 -12t18.5 -36z" />
    <glyph glyph-name="Egrave" unicode="&#xc8;" horiz-adv-x="510" 
d="M433 481q-2 0 -1 1t-1 1h-65q-1 0 -14 2.5t-28.5 5.5t-29.5 5.5t-17 2.5h-27q-2 0 -1 0.5t-1 0.5h-37q-2 0 -1 -0.5t-1 -0.5h-28q-6 0 -16 -1.5t-17 -3.5q-3 -1 -9 -1.5t-8 -3.5q-1 -3 -3 -13t-4 -21t-4 -20t-2 -11v-54q0 -12 5 -25.5t14 -25t20.5 -19t23.5 -8.5h50
q2 0 7.5 1t10.5 3q4 1 9 0.5t9 1.5h24q1 0 2.5 0.5t3.5 0.5q10 0 21 -1.5t21 -4.5t18.5 -7t12.5 -8v-22q0 -9 -13 -11.5t-19 -4.5h-60q-4 0 -14.5 -2l-21 -4t-19 -4.5t-10.5 -2.5h-28q-2 0 -1 1t-1 1h-57l-1 -1q-1 -1 -4 -1l12 -101v-24q0 -2 0 -1t1 1v-31q0 -2 -0.5 -1
t-1.5 0v-18q9 -2 17.5 -3t17.5 -3h21q2 0 1 -1t1 -1h42q2 0 1 1t1 1h27q3 0 24.5 2t47 5t48 6t27.5 4h12q-1 -10 8 -14.5t16 -8.5q0 -7 2 -12t2 -12q0 -17 -7 -26t-26 -9q-3 0 -6 -0.5t-4 1.5h-85q-2 0 -1 -0.5t-1 -0.5h-26q-2 0 -1 -1t-1 -1h-26q-2 0 -1 -1t-1 -1h-83
q-14 0 -31.5 4t-32.5 9t-25.5 10t-11.5 6v23q0 2 -1 1t-1 1v55q0 2 -1 0.5t-1 0.5v60q0 2 -0.5 1t-0.5 1v30q0 3 -1.5 15.5t-3.5 27.5t-4.5 28t-4.5 16q3 4 6 9.5t8 10.5v25q1 2 1 4v4q0 7 -1 7v50q0 2 -1 1t-1 1v85q0 8 2.5 20t6 24t6.5 21.5t4 10.5h38q1 0 9 1.5t17.5 4
t19 4.5t12.5 2q5 1 12 1.5t14 2.5q5 1 10.5 0.5t9.5 1.5h23q2 0 1 0.5t1 0.5h97q2 0 3 -1h25q2 0 8 -0.5t14.5 -1t17 -1.5t15.5 -3q2 -1 3.5 -1.5t3.5 -1.5t3.5 -6t3.5 -9v-31q0 -3 -2 -11.5t2 -9.5h-18zM372 679q0 -5 -4.5 -12t-10 -13.5t-10.5 -11t-6 -5.5q-8 2 -17.5 6
t-16.5 15q-13 23 -33.5 30t-40.5 12q-15 8 -33 22.5t-38 19.5q-3 5 -3.5 6.5t-0.5 6.5t2 9.5t5 13.5q1 2 1 6.5v8.5q8 8 11 7.5t8 -0.5q13 0 20 -8.5t20 -19.5q18 -16 27 -20.5t20 -12.5q4 -2 10.5 -4t11.5 -4q4 -2 8 -6.5t9 -6.5q16 -8 31.5 -10t21.5 -16q1 -1 4.5 -5
t3.5 -8z" />
    <glyph glyph-name="Eacute" unicode="&#xc9;" horiz-adv-x="510" 
d="M154 679q0 4 4 8t4 5q3 8 8.5 11t13 5t15.5 4t16 6q5 2 9 6.5t8 6.5q5 2 12 4t10 4q6 5 10.5 7.5t10 5.5t11.5 7.5t15 12.5q13 11 20.5 19.5t19.5 8.5q6 0 8.5 0.5t10.5 -7.5v-8t1 -7q3 -9 5 -13t2 -10q0 -5 -0.5 -6.5t-3.5 -6.5q-20 -5 -37.5 -19t-33.5 -23
q-20 -5 -40.5 -12t-33.5 -30q-6 -11 -16 -15t-18 -6q-1 1 -6 5.5t-10.5 11t-10 13.5t-4.5 12zM433 481q-2 0 -1 1t-1 1h-65q-1 0 -14 2.5t-28.5 5.5t-29.5 5.5t-17 2.5h-27q-2 0 -1 0.5t-1 0.5h-37q-2 0 -1 -0.5t-1 -0.5h-28q-6 0 -16 -1.5t-17 -3.5q-3 -1 -9 -1.5t-8 -3.5
q-1 -3 -3 -13t-4 -21t-4 -20t-2 -11v-54q0 -12 5 -25.5t14 -25t20.5 -19t23.5 -8.5h50q2 0 7.5 1t10.5 3q4 1 9 0.5t9 1.5h24q1 0 2.5 0.5t3.5 0.5q10 0 21 -1.5t21 -4.5t18.5 -7t12.5 -8v-22q0 -9 -13 -11.5t-19 -4.5h-60q-4 0 -14.5 -2l-21 -4t-19 -4.5t-10.5 -2.5h-28
q-2 0 -1 1t-1 1h-57l-1 -1q-1 -1 -4 -1l12 -101v-24q0 -2 0 -1t1 1v-31q0 -2 -0.5 -1t-1.5 0v-18q9 -2 17.5 -3t17.5 -3h21q2 0 1 -1t1 -1h42q2 0 1 1t1 1h27q3 0 24.5 2t47 5t48 6t27.5 4h12q-1 -10 8 -14.5t16 -8.5q0 -7 2 -12t2 -12q0 -17 -7 -26t-26 -9q-3 0 -6 -0.5
t-4 1.5h-85q-2 0 -1 -0.5t-1 -0.5h-26q-2 0 -1 -1t-1 -1h-26q-2 0 -1 -1t-1 -1h-83q-14 0 -31.5 4t-32.5 9t-25.5 10t-11.5 6v23q0 2 -1 1t-1 1v55q0 2 -1 0.5t-1 0.5v60q0 2 -0.5 1t-0.5 1v30q0 3 -1.5 15.5t-3.5 27.5t-4.5 28t-4.5 16q3 4 6 9.5t8 10.5v25q1 2 1 4v4
q0 7 -1 7v50q0 2 -1 1t-1 1v85q0 8 2.5 20t6 24t6.5 21.5t4 10.5h38q1 0 9 1.5t17.5 4t19 4.5t12.5 2q5 1 12 1.5t14 2.5q5 1 10.5 0.5t9.5 1.5h23q2 0 1 0.5t1 0.5h97q2 0 3 -1h25q2 0 8 -0.5t14.5 -1t17 -1.5t15.5 -3q2 -1 3.5 -1.5t3.5 -1.5t3.5 -6t3.5 -9v-31
q0 -3 -2 -11.5t2 -9.5h-18z" />
    <glyph glyph-name="Ecircumflex" unicode="&#xca;" horiz-adv-x="510" 
d="M433 481q-2 0 -1 1t-1 1h-65q-1 0 -14 2.5t-28.5 5.5t-29.5 5.5t-17 2.5h-27q-2 0 -1 0.5t-1 0.5h-37q-2 0 -1 -0.5t-1 -0.5h-28q-6 0 -16 -1.5t-17 -3.5q-3 -1 -9 -1.5t-8 -3.5q-1 -3 -3 -13t-4 -21t-4 -20t-2 -11v-54q0 -12 5 -25.5t14 -25t20.5 -19t23.5 -8.5h50
q2 0 7.5 1t10.5 3q4 1 9 0.5t9 1.5h24q1 0 2.5 0.5t3.5 0.5q10 0 21 -1.5t21 -4.5t18.5 -7t12.5 -8v-22q0 -9 -13 -11.5t-19 -4.5h-60q-4 0 -14.5 -2l-21 -4t-19 -4.5t-10.5 -2.5h-28q-2 0 -1 1t-1 1h-57l-1 -1q-1 -1 -4 -1l12 -101v-24q0 -2 0 -1t1 1v-31q0 -2 -0.5 -1
t-1.5 0v-18q9 -2 17.5 -3t17.5 -3h21q2 0 1 -1t1 -1h42q2 0 1 1t1 1h27q3 0 24.5 2t47 5t48 6t27.5 4h12q-1 -10 8 -14.5t16 -8.5q0 -7 2 -12t2 -12q0 -17 -7 -26t-26 -9q-3 0 -6 -0.5t-4 1.5h-85q-2 0 -1 -0.5t-1 -0.5h-26q-2 0 -1 -1t-1 -1h-26q-2 0 -1 -1t-1 -1h-83
q-14 0 -31.5 4t-32.5 9t-25.5 10t-11.5 6v23q0 2 -1 1t-1 1v55q0 2 -1 0.5t-1 0.5v60q0 2 -0.5 1t-0.5 1v30q0 3 -1.5 15.5t-3.5 27.5t-4.5 28t-4.5 16q3 4 6 9.5t8 10.5v25q1 2 1 4v4q0 7 -1 7v50q0 2 -1 1t-1 1v85q0 8 2.5 20t6 24t6.5 21.5t4 10.5h38q1 0 9 1.5t17.5 4
t19 4.5t12.5 2q5 1 12 1.5t14 2.5q5 1 10.5 0.5t9.5 1.5h23q2 0 1 0.5t1 0.5h97q2 0 3 -1h25q2 0 8 -0.5t14.5 -1t17 -1.5t15.5 -3q2 -1 3.5 -1.5t3.5 -1.5t3.5 -6t3.5 -9v-31q0 -3 -2 -11.5t2 -9.5h-18zM384 702q0 -13 -6.5 -24t-10.5 -13q-5 -2 -18 -7t-18 -5h-5t-5 2
q-4 4 -12 10t-15.5 12t-13 10l-5.5 4q-10 0 -18.5 -5.5t-17.5 -12t-18.5 -12t-20.5 -5.5q-6 0 -14 4.5t-15 11t-12 14t-5 13.5t5.5 12t13 10.5t15 7.5t10.5 3q1 0 3 -2t4 -2q5 0 12 6t14.5 13.5t15 13.5t14.5 6t14 -3.5l11 -5.5q2 -4 7 -6.5t9 -5.5q8 -6 17.5 -12.5
t20.5 -11.5q6 -3 14 -4t14.5 -2t11 -4t4.5 -10z" />
    <glyph glyph-name="Edieresis" unicode="&#xcb;" horiz-adv-x="508" 
d="M433 481q-2 0 -1 1t-1 1h-65q-1 0 -14 2.5t-28.5 5.5t-29.5 5.5t-17 2.5h-27q-2 0 -1 0.5t-1 0.5h-37q-2 0 -1 -0.5t-1 -0.5h-28q-6 0 -16 -1.5t-17 -3.5q-3 -1 -9 -1.5t-8 -3.5q-1 -3 -3 -13t-4 -21t-4 -20t-2 -11v-54q0 -12 5 -25.5t14 -25t20.5 -19t23.5 -8.5h50
q2 0 7.5 1t10.5 3q4 1 9 0.5t9 1.5h24q1 0 2.5 0.5t3.5 0.5q10 0 21 -1.5t21 -4.5t18.5 -7t12.5 -8v-22q0 -9 -13 -11.5t-19 -4.5h-60q-4 0 -14.5 -2l-21 -4t-19 -4.5t-10.5 -2.5h-28q-2 0 -1 1t-1 1h-57l-1 -1q-1 -1 -4 -1l12 -101v-24q0 -2 0 -1t1 1v-31q0 -2 -0.5 -1
t-1.5 0v-18q9 -2 17.5 -3t17.5 -3h21q2 0 1 -1t1 -1h42q2 0 1 1t1 1h27q3 0 24.5 2t47 5t48 6t27.5 4h12q-1 -10 8 -14.5t16 -8.5q0 -7 2 -12t2 -12q0 -17 -7 -26t-26 -9q-3 0 -6 -0.5t-4 1.5h-85q-2 0 -1 -0.5t-1 -0.5h-26q-2 0 -1 -1t-1 -1h-26q-2 0 -1 -1t-1 -1h-83
q-14 0 -31.5 4t-32.5 9t-25.5 10t-11.5 6v23q0 2 -1 1t-1 1v55q0 2 -1 0.5t-1 0.5v60q0 2 -0.5 1t-0.5 1v30q0 3 -1.5 15.5t-3.5 27.5t-4.5 28t-4.5 16q3 4 6 9.5t8 10.5v25q1 2 1 4v4q0 7 -1 7v50q0 2 -1 1t-1 1v85q0 8 2.5 20t6 24t6.5 21.5t4 10.5h38q1 0 9 1.5t17.5 4
t19 4.5t12.5 2q5 1 12 1.5t14 2.5q5 1 10.5 0.5t9.5 1.5h23q2 0 1 0.5t1 0.5h97q2 0 3 -1h25q2 0 8 -0.5t14.5 -1t17 -1.5t15.5 -3q2 -1 3.5 -1.5t3.5 -1.5t3.5 -6t3.5 -9v-31q0 -3 -2 -11.5t2 -9.5h-18zM418 705q0 -25 -19 -45t-46 -20q-15 0 -22 3.5t-10.5 9.5t-5.5 14.5
t-6 19.5l9 34q0 13 11 29t26 14q0 2 3.5 1t7 -2.5t6.5 -2t3 0.5q16 -7 25 -11.5t13 -10t4.5 -13t0.5 -21.5zM245 725q0 -12 -5 -27t-13.5 -28t-20 -21.5t-25.5 -8.5q-15 0 -22 2.5t-10 7.5t-5 13t-6 19l-9 35q0 6 3.5 14.5t8.5 15t12.5 11t14.5 3.5q0 2 4.5 2.5t9.5 1.5t9 2
t4 2q16 -7 26 -10t15 -6t7 -8.5t2 -19.5z" />
    <glyph glyph-name="Igrave" unicode="&#xcc;" horiz-adv-x="379" 
d="M298 546q0 -12 -8 -21t-19 -15.5t-23 -10t-20 -4.5q0 -2 -2 -12.5t-4 -23t-3.5 -23.5t-1.5 -16v-28q0 -2 -0.5 -1t-0.5 0v-46q0 -1 1 -1v-27q0 -6 2 -19t4.5 -27t4.5 -26t3 -15v-56q0 -2 -0.5 -1t-0.5 0v-57q0 -4 2.5 -10.5t5.5 -13t6 -12t4 -7.5q6 0 10.5 2t9.5 2
t8.5 -4.5t5.5 -10.5t3 -12t1 -9q0 -6 -2.5 -14t-7 -14.5t-12 -9.5t-17.5 0q-2 2 -1.5 6.5t0.5 6.5q-5 2 -9 3.5t-8 2.5q-5 1 -13.5 1.5t-12.5 2.5h-27q-2 0 -1 -1t-1 -1h-60q-8 0 -20 6t-12 14q0 9 10 24t18 29q2 3 10 13t12 18q0 1 2 12t4 24.5t3.5 26t1.5 15.5v29
q0 2 1 0.5t1 0.5v78q0 2 -1 0.5t-1 0.5v31q0 5 -1.5 10.5t-3.5 30.5q-2 11 -2.5 22t-2.5 21q-2 7 -2.5 14.5t-2.5 18.5q-2 12 -2 24t-8 26q-5 9 -12 14t-13 12q-4 4 -4 9t-4 10v22q0 1 1 2t1 4q7 0 16.5 1.5t17.5 3.5q2 1 7.5 0.5t7.5 1.5h23q1 0 3 -2h21h7.5t25.5 -5h22
q1 0 5 -1t6 -1h6.5t14.5 2q3 -9 7.5 -12.5t9 -6.5t8 -7t3.5 -14zM299 679q0 -5 -4.5 -12t-10 -13.5t-10.5 -11t-6 -5.5q-8 2 -17.5 6t-16.5 15q-13 23 -33.5 30t-40.5 12q-15 8 -33 22.5t-38 19.5q-3 5 -3.5 6.5t-0.5 6.5t2 9.5t5 13.5q1 2 1 6.5v8.5q8 8 11 7.5t8 -0.5
q13 0 20 -8.5t20 -19.5q18 -16 27 -20.5t20 -12.5q4 -2 10.5 -4t11.5 -4q4 -2 8 -6.5t9 -6.5q16 -8 31.5 -10t21.5 -16q1 -1 4.5 -5t3.5 -8z" />
    <glyph glyph-name="Iacute" unicode="&#xcd;" horiz-adv-x="379" 
d="M83 679q0 4 4 8t4 5q7 15 22 16.5t31 9.5q5 2 9 6.5t8 6.5q5 2 12 4t10 4q6 5 10.5 7.5t10 5.5t11.5 7.5t15 12.5q13 11 20.5 19.5t19.5 8.5q6 0 9 0.5t10 -7.5q1 -3 0.5 -8t0.5 -7q3 -9 5 -13t2 -10q0 -5 -0.5 -6.5t-3.5 -6.5q-20 -5 -37.5 -19t-33.5 -23
q-20 -5 -40.5 -12t-33.5 -30q-6 -11 -16 -15t-18 -6q-1 1 -6 5.5t-10.5 11t-10 13.5t-4.5 12zM298 546q0 -12 -8 -21t-19 -15.5t-23 -10t-20 -4.5q0 -2 -2 -12.5t-4 -23t-3.5 -23.5t-1.5 -16v-28q0 -2 -0.5 -1t-0.5 0v-46q0 -1 1 -1v-27q0 -6 2 -19t4.5 -27t4.5 -26t3 -15
v-56q0 -2 -0.5 -1t-0.5 0v-57q0 -4 2.5 -10.5t5.5 -13t6 -12t4 -7.5q6 0 10.5 2t9.5 2t8.5 -4.5t5.5 -10.5t3 -12t1 -9q0 -6 -2.5 -14t-7 -14.5t-12 -9.5t-17.5 0q-2 2 -1.5 6.5t0.5 6.5q-5 2 -9 3.5t-8 2.5q-5 1 -13.5 1.5t-12.5 2.5h-27q-2 0 -1 -1t-1 -1h-60q-8 0 -20 6
t-12 14q0 9 10 24t18 29q2 3 10 13t12 18q0 1 2 12t4 24.5t3.5 26t1.5 15.5v29q0 2 1 0.5t1 0.5v78q0 2 -1 0.5t-1 0.5v31q0 5 -1.5 10.5t-3.5 30.5q-2 11 -2.5 22t-2.5 21q-2 7 -2.5 14.5t-2.5 18.5q-2 12 -2 24t-8 26q-5 9 -12 14t-13 12q-4 4 -4 9t-4 10v22q0 1 1 2t1 4
q7 0 16.5 1.5t17.5 3.5q2 1 7.5 0.5t7.5 1.5h23q1 0 3 -2h21h7.5t25.5 -5h22q1 0 5 -1t6 -1h6.5t14.5 2q3 -9 7.5 -12.5t9 -6.5t8 -7t3.5 -14z" />
    <glyph glyph-name="Icircumflex" unicode="&#xce;" horiz-adv-x="379" 
d="M298 546q0 -12 -8 -21t-19 -15.5t-23 -10t-20 -4.5q0 -2 -2 -12.5t-4 -23t-3.5 -23.5t-1.5 -16v-28q0 -2 -0.5 -1t-0.5 0v-46q0 -1 1 -1v-27q0 -6 2 -19t4.5 -27t4.5 -26t3 -15v-56q0 -2 -0.5 -1t-0.5 0v-57q0 -4 2.5 -10.5t5.5 -13t6 -12t4 -7.5q6 0 10.5 2t9.5 2
t8.5 -4.5t5.5 -10.5t3 -12t1 -9q0 -6 -2.5 -14t-7 -14.5t-12 -9.5t-17.5 0q-2 2 -1.5 6.5t0.5 6.5q-5 2 -9 3.5t-8 2.5q-5 1 -13.5 1.5t-12.5 2.5h-27q-2 0 -1 -1t-1 -1h-60q-8 0 -20 6t-12 14q0 9 10 24t18 29q2 3 10 13t12 18q0 1 2 12t4 24.5t3.5 26t1.5 15.5v29
q0 2 1 0.5t1 0.5v78q0 2 -1 0.5t-1 0.5v31q0 5 -1.5 10.5t-3.5 30.5q-2 11 -2.5 22t-2.5 21q-2 7 -2.5 14.5t-2.5 18.5q-2 12 -2 24t-8 26q-5 9 -12 14t-13 12q-4 4 -4 9t-4 10v22q0 1 1 2t1 4q7 0 16.5 1.5t17.5 3.5q2 1 7.5 0.5t7.5 1.5h23q1 0 3 -2h21h7.5t25.5 -5h22
q1 0 5 -1t6 -1h6.5t14.5 2q3 -9 7.5 -12.5t9 -6.5t8 -7t3.5 -14zM305 714q0 -13 -6.5 -24t-10.5 -13q-5 -2 -18 -7t-18 -5h-5t-5 2q-4 4 -12 10t-15.5 12t-13 10l-5.5 4q-10 0 -18.5 -5.5t-17.5 -12t-18.5 -12t-20.5 -5.5q-6 0 -14 4.5t-15 11t-12 14t-5 13.5t5.5 12
t13 10.5t15 7.5t10.5 3q1 0 3 -2t4 -2q5 0 12 6t14.5 13.5t15 13.5t14.5 6t14 -3.5l11 -5.5q2 -4 7 -6.5t9 -5.5q8 -6 17.5 -12.5t20.5 -11.5q6 -3 14 -4t14.5 -2t11 -4t4.5 -10z" />
    <glyph glyph-name="Idieresis" unicode="&#xcf;" horiz-adv-x="379" 
d="M298 546q0 -12 -8 -21t-19 -15.5t-23 -10t-20 -4.5q0 -2 -2 -12.5t-4 -23t-3.5 -23.5t-1.5 -16v-28q0 -2 -0.5 -1t-0.5 0v-46q0 -1 1 -1v-27q0 -6 2 -19t4.5 -27t4.5 -26t3 -15v-56q0 -2 -0.5 -1t-0.5 0v-57q0 -4 2.5 -10.5t5.5 -13t6 -12t4 -7.5q6 0 10.5 2t9.5 2
t8.5 -4.5t5.5 -10.5t3 -12t1 -9q0 -6 -2.5 -14t-7 -14.5t-12 -9.5t-17.5 0q-2 2 -1.5 6.5t0.5 6.5q-5 2 -9 3.5t-8 2.5q-5 1 -13.5 1.5t-12.5 2.5h-27q-2 0 -1 -1t-1 -1h-60q-8 0 -20 6t-12 14q0 9 10 24t18 29q2 3 10 13t12 18q0 1 2 12t4 24.5t3.5 26t1.5 15.5v29
q0 2 1 0.5t1 0.5v78q0 2 -1 0.5t-1 0.5v31q0 5 -1.5 10.5t-3.5 30.5q-2 11 -2.5 22t-2.5 21q-2 7 -2.5 14.5t-2.5 18.5q-2 12 -2 24t-8 26q-5 9 -12 14t-13 12q-4 4 -4 9t-4 10v22q0 1 1 2t1 4q7 0 16.5 1.5t17.5 3.5q2 1 7.5 0.5t7.5 1.5h23q1 0 3 -2h21h7.5t25.5 -5h22
q1 0 5 -1t6 -1h6.5t14.5 2q3 -9 7.5 -12.5t9 -6.5t8 -7t3.5 -14zM345 705q0 -25 -19 -45t-46 -20q-15 0 -22 3.5t-10.5 9.5t-5.5 14.5t-6 19.5l9 34q0 13 11 29t26 14q0 2 3.5 1t7 -2.5t6.5 -2t3 0.5q16 -7 25 -11.5t13 -10t4.5 -13t0.5 -21.5zM172 725q0 -12 -5 -27
t-13.5 -28t-20 -21.5t-25.5 -8.5q-15 0 -22 2.5t-10 7.5t-5 13t-6 19l-9 35q0 6 3.5 14.5t8.5 15t12.5 11t14.5 3.5q0 2 4.5 2.5t9.5 1.5t9 2t4 2q16 -7 26 -10t15 -6t7 -8.5t2 -19.5z" />
    <glyph glyph-name="Ntilde" unicode="&#xd1;" horiz-adv-x="571" 
d="M499 213q0 -2 -1 -1t-1 0v-44q0 -2 -1 -0.5t-1 0.5v-31q0 -2 -1 -1t-1 0v-26q0 -2 -0.5 -0.5t-0.5 0.5v-22q0 -1 -1 -9t-2 -17.5t-2 -18t-1 -10.5h-5t-4 -2h-39q-7 0 -11.5 9t-7 19.5t-3 20t-0.5 10.5q-8 3 -11 4.5t-4 2.5t-2.5 1h-7.5q0 3 -0.5 8t-2 10.5t-3.5 10.5
t-7 6q-10 8 -16 15t-11 12.5t-10.5 9.5t-14.5 6q1 7 2.5 15t1.5 10q0 6 -6 13.5t-14.5 16l-17.5 17.5t-15 18l-12 16t-19.5 29t-20.5 36.5t-15 38.5q-1 3 -6.5 9t-12.5 11.5t-15 9.5t-13 4q-3 0 -5.5 0.5t-4.5 -4.5q-1 -1 -2.5 -9t-3 -18t-2.5 -19t-1 -12v-24q0 -2 -1 -1
t-1 0v-119q0 -2 0.5 -1t1.5 1v-44q0 -2 0 -1t1 1v-46q0 -2 0.5 -1t1.5 1v-95q0 -12 -6.5 -16.5t-17.5 -4.5t-15.5 4t-7 9t-5 9t-8.5 4q-3 0 -3 -1q-1 0 -2 0.5t-2 0.5v91q-1 2 -1 1t0 1v55q0 2 -1 0.5t-1 0.5v50q0 2 -1 0.5t-1 0.5v57q0 2 -1 0.5t-1 0.5v152q0 2 1 1t1 1v35
q0 2 1 1t1 1v25q0 26 7 44t38 18q14 0 19 -8.5t18 -16.5q6 -4 16 -9.5t18 -8.5v-25q0 -1 5 -5t10.5 -9t10 -9.5t4.5 -6.5t-1.5 -9t-1.5 -9q0 -3 3.5 -9.5t8.5 -14t10 -14.5t7 -10q5 -9 13 -20.5t14 -20.5q11 -21 23 -37q8 -13 19 -26.5t18 -24.5q3 -5 6.5 -18.5t11.5 -29.5
q0 -2 6.5 -6t9.5 -9q3 -6 5.5 -12.5t6 -12t9 -9t15.5 -3.5q17 0 20.5 7t3.5 22v34q0 2 1 0.5t1 0.5v29q0 2 -1 0.5t-1 0.5v45q0 2 -1 0.5t-1 0.5v29q0 2 -0.5 0.5t-0.5 0.5v28q0 2 -1 1t-1 1v37q0 2 -1 1t-1 1v51q0 2 1 1t1 1v26q0 7 2 19t5 24l5.5 22t3.5 13q3 1 4.5 2.5
t10.5 1.5q17 0 23 -5.5t7.5 -15t1.5 -22t4 -26.5v-22q0 -1 1 -1v-26q0 -2 0.5 -1t1.5 1v-33q0 -1 2 -1v-42q0 -2 0.5 -1t1.5 1v-170zM168 711q3 1 7 1h6t4 -1t0.5 0.5t-0.5 4t2 4.5t8 1q9 -2 9.5 1t6.5 7q7 4 11.5 8.5t13.5 4.5h31q7 0 15 -5q4 -3 10 -5l26 -8l6 -6
l4.5 -4.5t3.5 -4.5q2 -4 7 -5t16 -9q5 -4 8.5 -5t5.5 -1q3 0 3 1q1 0 3 1q4 2 8 7q5 5 11.5 8.5t8.5 18.5q1 11 30 11q7 0 10.5 -4.5t4.5 -10t1 -11v-7.5q0 -4 -2.5 -14t-4.5 -15t-5.5 -9t-8.5 -12t-15.5 -12.5t-13.5 -6.5q-4 -2 -17 -2h-15l-37 16q-12 5 -16.5 7.5
t-6.5 3.5t-2.5 2t-5.5 4q-9 5 -13.5 8.5t-18.5 7.5q-7 2 -9.5 2.5t-4 0.5t-2.5 0.5t-4 0.5q-7 2 -9.5 -2t-6.5 -6t-11.5 -7t-9.5 -10q-2 -6 -7 -10t-12 -11q-6 -6 -10 -6q-2 0 -4 1q-3 1 -7 2q-3 1 -7 1.5t-9 1.5q-4 1 -5.5 2t-2.5 2t-2 3t-5 5q-7 5 -4 11.5t3 11.5t6 13
q3 4 5 8l14 12z" />
    <glyph glyph-name="Ograve" unicode="&#xd2;" horiz-adv-x="561" 
d="M429 330q-1 24 -5.5 41t-10.5 32t-13 29t-13 30q-10 2 -17.5 12.5t-14.5 15.5q-18 12 -36.5 13t-35.5 6q2 12 -3 14.5t-14 2.5q-17 0 -28.5 -8.5t-28.5 -25.5q-5 -5 -10 -8t-11 -7q-3 -2 -9.5 -3.5t-8.5 -4.5q-3 0 -7.5 -12.5t-9 -29.5t-7.5 -33.5t-3 -24.5v-22
q0 -2 -1 -0.5t-1 -0.5v-112q0 -2 1 -0.5t1 -0.5v-75q18 -3 31.5 -14t27 -24t28.5 -23t36 -12q5 0 12 -2.5t11 -2.5h36q14 4 29.5 6t23.5 9q8 6 14.5 16.5t8.5 15.5q2 7 6.5 29.5t9 47.5t8 46t3.5 24v24q1 1 1 0t0 1v31zM482 267q0 -2 -0.5 -1t-1.5 0v-30q0 -7 -2 -27.5
t-4.5 -42t-5 -39.5t-4.5 -20q-21 -24 -35.5 -42t-28.5 -30t-31.5 -18t-43.5 -6q-1 0 -5 2h-22q-8 0 -27.5 5t-40.5 11t-38 12t-20 8q-11 8 -23.5 16t-26.5 24q-12 13 -19 29.5t-11 35t-6.5 38t-5.5 37.5v21q0 2 -1 1t-1 1v69q0 21 5.5 50t12.5 57t13.5 49.5t9.5 25.5
q7 5 14 9t12 11q1 8 -1 16.5t3 10.5q15 3 26 6t21.5 6.5t21.5 8t26 8.5h82q0 -5 3.5 -8t5.5 -8h24q4 0 17 -4.5t27.5 -10.5t26.5 -11t13 -6q2 -2 5.5 -5t5.5 -6q10 -12 14.5 -28t6.5 -33.5t3 -34.5t4 -31v-27q0 -1 2 -1v-98zM395 679q0 -5 -4.5 -12t-10 -13.5t-10.5 -11
t-6 -5.5q-8 2 -17.5 6t-16.5 15q-13 23 -33.5 30t-40.5 12q-15 8 -33 22.5t-38 19.5q-3 5 -3.5 6.5t-0.5 6.5t2 9.5t5 13.5q1 2 1 6.5v8.5q8 8 11 7.5t8 -0.5q13 0 20 -8.5t20 -19.5q18 -16 27 -20.5t20 -12.5q4 -2 10.5 -4t11.5 -4q4 -2 8 -6.5t9 -6.5q16 -8 31.5 -10
t21.5 -16q1 -1 4.5 -5t3.5 -8z" />
    <glyph glyph-name="Oacute" unicode="&#xd3;" horiz-adv-x="561" 
d="M190 679q0 4 3.5 8t4.5 5q3 8 8.5 11t13 5t15.5 4t16 6q5 2 9 6.5t8 6.5q5 2 11.5 4t10.5 4q11 9 20 13t27 20q12 11 19.5 19.5t20.5 8.5q5 0 8 0.5t11 -7.5v-8t1 -7q3 -9 5 -13t2 -10q0 -5 -0.5 -6.5t-3.5 -6.5q-20 -5 -38 -19t-33 -23q-20 -5 -40.5 -12t-33.5 -30
q-7 -11 -16.5 -15t-17.5 -6q-1 1 -6 5.5t-10.5 11t-10 13.5t-4.5 12zM429 330q-1 24 -5.5 41t-10.5 32t-13 29t-13 30q-10 2 -17.5 12.5t-14.5 15.5q-18 12 -36.5 13t-35.5 6q2 12 -3 14.5t-14 2.5q-17 0 -28.5 -8.5t-28.5 -25.5q-5 -5 -10 -8t-11 -7q-3 -2 -9.5 -3.5
t-8.5 -4.5q-3 0 -7.5 -12.5t-9 -29.5t-7.5 -33.5t-3 -24.5v-22q0 -2 -1 -0.5t-1 -0.5v-112q0 -2 1 -0.5t1 -0.5v-75q18 -3 31.5 -14t27 -24t28.5 -23t36 -12q5 0 12 -2.5t11 -2.5h36q14 4 29.5 6t23.5 9q8 6 14.5 16.5t8.5 15.5q2 7 6.5 29.5t9 47.5t8 46t3.5 24v24q1 1 1 0
t0 1v31zM482 267q0 -2 -0.5 -1t-1.5 0v-30q0 -7 -2 -27.5t-4.5 -42t-5 -39.5t-4.5 -20q-21 -24 -35.5 -42t-28.5 -30t-31.5 -18t-43.5 -6q-1 0 -5 2h-22q-8 0 -27.5 5t-40.5 11t-38 12t-20 8q-11 8 -23.5 16t-26.5 24q-12 13 -19 29.5t-11 35t-6.5 38t-5.5 37.5v21q0 2 -1 1
t-1 1v69q0 21 5.5 50t12.5 57t13.5 49.5t9.5 25.5q7 5 14 9t12 11q1 8 -1 16.5t3 10.5q15 3 26 6t21.5 6.5t21.5 8t26 8.5h82q0 -5 3.5 -8t5.5 -8h24q4 0 17 -4.5t27.5 -10.5t26.5 -11t13 -6q2 -2 5.5 -5t5.5 -6q10 -12 14.5 -28t6.5 -33.5t3 -34.5t4 -31v-27q0 -1 2 -1v-98
z" />
    <glyph glyph-name="Ocircumflex" unicode="&#xd4;" horiz-adv-x="561" 
d="M429 330q-1 24 -5.5 41t-10.5 32t-13 29t-13 30q-10 2 -17.5 12.5t-14.5 15.5q-18 12 -36.5 13t-35.5 6q2 12 -3 14.5t-14 2.5q-17 0 -28.5 -8.5t-28.5 -25.5q-5 -5 -10 -8t-11 -7q-3 -2 -9.5 -3.5t-8.5 -4.5q-3 0 -7.5 -12.5t-9 -29.5t-7.5 -33.5t-3 -24.5v-22
q0 -2 -1 -0.5t-1 -0.5v-112q0 -2 1 -0.5t1 -0.5v-75q18 -3 31.5 -14t27 -24t28.5 -23t36 -12q5 0 12 -2.5t11 -2.5h36q14 4 29.5 6t23.5 9q8 6 14.5 16.5t8.5 15.5q2 7 6.5 29.5t9 47.5t8 46t3.5 24v24q1 1 1 0t0 1v31zM482 267q0 -2 -0.5 -1t-1.5 0v-30q0 -7 -2 -27.5
t-4.5 -42t-5 -39.5t-4.5 -20q-21 -24 -35.5 -42t-28.5 -30t-31.5 -18t-43.5 -6q-1 0 -5 2h-22q-8 0 -27.5 5t-40.5 11t-38 12t-20 8q-11 8 -23.5 16t-26.5 24q-12 13 -19 29.5t-11 35t-6.5 38t-5.5 37.5v21q0 2 -1 1t-1 1v69q0 21 5.5 50t12.5 57t13.5 49.5t9.5 25.5
q7 5 14 9t12 11q1 8 -1 16.5t3 10.5q15 3 26 6t21.5 6.5t21.5 8t26 8.5h82q0 -5 3.5 -8t5.5 -8h24q4 0 17 -4.5t27.5 -10.5t26.5 -11t13 -6q2 -2 5.5 -5t5.5 -6q10 -12 14.5 -28t6.5 -33.5t3 -34.5t4 -31v-27q0 -1 2 -1v-98zM393 714q0 -13 -6.5 -24t-10.5 -13q-5 -2 -18 -7
t-18 -5h-5t-5 2q-4 4 -12 10t-15.5 12t-13 10l-5.5 4q-10 0 -18.5 -5.5t-17.5 -12t-18.5 -12t-20.5 -5.5q-6 0 -14 4.5t-15 11t-12 14t-5 13.5t5.5 12t13 10.5t15 7.5t10.5 3q1 0 3 -2t4 -2q5 0 12 6t14.5 13.5t15 13.5t14.5 6t14 -3.5l11 -5.5q2 -4 7 -6.5t9 -5.5
q8 -6 17.5 -12.5t20.5 -11.5q6 -3 14 -4t14.5 -2t11 -4t4.5 -10z" />
    <glyph glyph-name="Otilde" unicode="&#xd5;" horiz-adv-x="561" 
d="M429 330q-1 24 -5.5 41t-10.5 32t-13 29t-13 30q-10 2 -17.5 12.5t-14.5 15.5q-18 12 -36.5 13t-35.5 6q2 12 -3 14.5t-14 2.5q-17 0 -28.5 -8.5t-28.5 -25.5q-5 -5 -10 -8t-11 -7q-3 -2 -9.5 -3.5t-8.5 -4.5q-3 0 -7.5 -12.5t-9 -29.5t-7.5 -33.5t-3 -24.5v-22
q0 -2 -1 -0.5t-1 -0.5v-112q0 -2 1 -0.5t1 -0.5v-75q18 -3 31.5 -14t27 -24t28.5 -23t36 -12q5 0 12 -2.5t11 -2.5h36q14 4 29.5 6t23.5 9q8 6 14.5 16.5t8.5 15.5q2 7 6.5 29.5t9 47.5t8 46t3.5 24v24q1 1 1 0t0 1v31zM482 267q0 -2 -0.5 -1t-1.5 0v-30q0 -7 -2 -27.5
t-4.5 -42t-5 -39.5t-4.5 -20q-21 -24 -35.5 -42t-28.5 -30t-31.5 -18t-43.5 -6q-1 0 -5 2h-22q-8 0 -27.5 5t-40.5 11t-38 12t-20 8q-11 8 -23.5 16t-26.5 24q-12 13 -19 29.5t-11 35t-6.5 38t-5.5 37.5v21q0 2 -1 1t-1 1v69q0 21 5.5 50t12.5 57t13.5 49.5t9.5 25.5
q7 5 14 9t12 11q1 8 -1 16.5t3 10.5q15 3 26 6t21.5 6.5t21.5 8t26 8.5h82q0 -5 3.5 -8t5.5 -8h24q4 0 17 -4.5t27.5 -10.5t26.5 -11t13 -6q2 -2 5.5 -5t5.5 -6q10 -12 14.5 -28t6.5 -33.5t3 -34.5t4 -31v-27q0 -1 2 -1v-98zM153 711q3 1 7 1h6t4 -1t0.5 0.5t-0.5 4t2 4.5
t8 1q9 -2 9.5 1t6.5 7q7 4 11.5 8.5t13.5 4.5h31q7 0 15 -5q4 -3 10 -5l26 -8l6 -6l4.5 -4.5t3.5 -4.5q2 -4 7 -5t16 -9q5 -4 8.5 -5t5.5 -1q3 0 3 1q1 0 3 1q4 2 8 7q5 5 11.5 8.5t8.5 18.5q1 11 30 11q7 0 10.5 -4.5t4.5 -10t1 -11v-7.5q0 -4 -2.5 -14t-4.5 -15t-5.5 -9
t-8.5 -12t-15.5 -12.5t-13.5 -6.5q-4 -2 -17 -2h-15l-37 16q-12 5 -16.5 7.5t-6.5 3.5t-2.5 2t-5.5 4q-9 5 -13.5 8.5t-18.5 7.5q-7 2 -9.5 2.5t-4 0.5t-2.5 0.5t-4 0.5q-7 2 -9.5 -2t-6.5 -6t-11.5 -7t-9.5 -10q-2 -6 -7 -10t-12 -11q-6 -6 -10 -6q-2 0 -4 1q-3 1 -7 2
q-3 1 -7 1.5t-9 1.5q-4 1 -5.5 2t-2.5 2t-2 3t-5 5q-7 5 -4 11.5t3 11.5t6 13q3 4 5 8l14 12z" />
    <glyph glyph-name="Odieresis" unicode="&#xd6;" horiz-adv-x="561" 
d="M429 330q-1 24 -5.5 41t-10.5 32t-13 29t-13 30q-10 2 -17.5 12.5t-14.5 15.5q-18 12 -36.5 13t-35.5 6q2 12 -3 14.5t-14 2.5q-17 0 -28.5 -8.5t-28.5 -25.5q-5 -5 -10 -8t-11 -7q-3 -2 -9.5 -3.5t-8.5 -4.5q-3 0 -7.5 -12.5t-9 -29.5t-7.5 -33.5t-3 -24.5v-22
q0 -2 -1 -0.5t-1 -0.5v-112q0 -2 1 -0.5t1 -0.5v-75q18 -3 31.5 -14t27 -24t28.5 -23t36 -12q5 0 12 -2.5t11 -2.5h36q14 4 29.5 6t23.5 9q8 6 14.5 16.5t8.5 15.5q2 7 6.5 29.5t9 47.5t8 46t3.5 24v24q1 1 1 0t0 1v31zM482 267q0 -2 -0.5 -1t-1.5 0v-30q0 -7 -2 -27.5
t-4.5 -42t-5 -39.5t-4.5 -20q-21 -24 -35.5 -42t-28.5 -30t-31.5 -18t-43.5 -6q-1 0 -5 2h-22q-8 0 -27.5 5t-40.5 11t-38 12t-20 8q-11 8 -23.5 16t-26.5 24q-12 13 -19 29.5t-11 35t-6.5 38t-5.5 37.5v21q0 2 -1 1t-1 1v69q0 21 5.5 50t12.5 57t13.5 49.5t9.5 25.5
q7 5 14 9t12 11q1 8 -1 16.5t3 10.5q15 3 26 6t21.5 6.5t21.5 8t26 8.5h82q0 -5 3.5 -8t5.5 -8h24q4 0 17 -4.5t27.5 -10.5t26.5 -11t13 -6q2 -2 5.5 -5t5.5 -6q10 -12 14.5 -28t6.5 -33.5t3 -34.5t4 -31v-27q0 -1 2 -1v-98zM433 705q0 -25 -19 -45t-46 -20q-15 0 -22 3.5
t-10.5 9.5t-5.5 14.5t-6 19.5l9 34q0 13 11 29t26 14q0 2 3.5 1t7 -2.5t6.5 -2t3 0.5q16 -7 25 -11.5t13 -10t4.5 -13t0.5 -21.5zM260 725q0 -12 -5 -27t-13.5 -28t-20 -21.5t-25.5 -8.5q-15 0 -22 2.5t-10 7.5t-5 13t-6 19l-9 35q0 6 3.5 14.5t8.5 15t12.5 11t14.5 3.5
q0 2 4.5 2.5t9.5 1.5t9 2t4 2q16 -7 26 -10t15 -6t7 -8.5t2 -19.5z" />
    <glyph glyph-name="Ugrave" unicode="&#xd9;" horiz-adv-x="562" 
d="M489 468v-6t-1 -5v-46q0 -2 0 -1t-1 0v-33q0 -2 -0.5 -1t-1.5 0v-29q0 -2 -0.5 -1t-1.5 0v-29q0 -2 -0.5 -0.5t-1.5 0.5v-33q0 -2 0 -1t-1 0v-47q0 -2 -0.5 -1t-1.5 0v-82q0 -2 0.5 -1t1.5 1v-36q1 -2 1 -3v-3q0 -12 -13.5 -17t-23.5 -11q-9 -6 -16.5 -14.5t-15.5 -16
t-17.5 -12t-21.5 -2.5q-3 -2 -4 -9.5t-3 -7.5q-5 -1 -12.5 -0.5t-9.5 -2.5h-63q-12 0 -26 3.5t-27 8t-21.5 9t-9.5 5.5q-2 2 -3 6.5t-6 5.5q-49 10 -68 49t-25 96v27q0 2 -1 1t-1 1v145q-2 4 -5 6.5t-5 6.5q-2 20 -3 39t-6 40v24q0 2 -1 3q0 1 -0.5 1t-0.5 1v1
q0 19 6.5 38.5t14.5 28.5q1 1 4 5.5t6 4.5t8.5 -3.5t10.5 -8t9 -9t4 -6.5q2 -9 3 -17.5t3 -17.5v-77q0 -2 0 -1t1 1v-35q0 -2 1.5 -8.5t3 -14.5t3 -15t1.5 -10q3 -21 2 -29.5t2 -9.5v-33q0 -2 0 -1t1 1v-37q0 -2 0.5 -1t1.5 1v-28q0 -26 7.5 -49t22.5 -40.5t36.5 -27.5
t48.5 -10q8 0 10 2h27q2 0 0.5 1t0.5 1h22q2 5 3 9t7 8h23q7 0 14 5.5t13 12.5t10 13t4 7q1 4 5 22t8.5 41.5t8 47.5t3.5 39v32q0 2 1 0.5t1 0.5v60q0 2 -1 1t-1 1v39q0 2 -1 1t-1 1v24q0 2 -0.5 1t-0.5 1v21q0 5 -1 13.5t-2.5 18.5t-2.5 20t-1 17q0 5 0.5 9t11.5 9h27
q1 0 5.5 -0.5t5.5 -0.5q3 0 5.5 -0.5t4.5 1.5h6q-2 -2 -2 -5.5t2 -4.5v-39q0 -2 0.5 -1t1.5 1zM395 679q0 -5 -4.5 -12t-10 -13.5t-10.5 -11t-6 -5.5q-8 2 -17.5 6t-16.5 15q-13 23 -33.5 30t-40.5 12q-15 8 -33 22.5t-38 19.5q-3 5 -3.5 6.5t-0.5 6.5t2 9.5t5 13.5
q1 2 1 6.5v8.5q8 8 11 7.5t8 -0.5q13 0 20 -8.5t20 -19.5q18 -16 27 -20.5t20 -12.5q4 -2 10.5 -4t11.5 -4q4 -2 8 -6.5t9 -6.5q16 -8 31.5 -10t21.5 -16q1 -1 4.5 -5t3.5 -8z" />
    <glyph glyph-name="Uacute" unicode="&#xda;" horiz-adv-x="562" 
d="M205 679q0 4 3.5 8t4.5 5q3 8 8.5 11t13 5t15.5 4t16 6q5 2 9 6.5t8 6.5q5 2 11.5 4t10.5 4q11 9 20 13t27 20q12 11 19.5 19.5t20.5 8.5q5 0 8 0.5t11 -7.5v-8t1 -7q3 -9 5 -13t2 -10q0 -5 -0.5 -6.5t-3.5 -6.5q-20 -5 -38 -19t-33 -23q-20 -5 -40.5 -12t-33.5 -30
q-7 -11 -16.5 -15t-17.5 -6q-1 1 -6 5.5t-10.5 11t-10 13.5t-4.5 12zM489 468v-6t-1 -5v-46q0 -2 0 -1t-1 0v-33q0 -2 -0.5 -1t-1.5 0v-29q0 -2 -0.5 -1t-1.5 0v-29q0 -2 -0.5 -0.5t-1.5 0.5v-33q0 -2 0 -1t-1 0v-47q0 -2 -0.5 -1t-1.5 0v-82q0 -2 0.5 -1t1.5 1v-36
q1 -2 1 -3v-3q0 -12 -13.5 -17t-23.5 -11q-9 -6 -16.5 -14.5t-15.5 -16t-17.5 -12t-21.5 -2.5q-3 -2 -4 -9.5t-3 -7.5q-5 -1 -12.5 -0.5t-9.5 -2.5h-63q-12 0 -26 3.5t-27 8t-21.5 9t-9.5 5.5q-2 2 -3 6.5t-6 5.5q-49 10 -68 49t-25 96v27q0 2 -1 1t-1 1v145q-2 4 -5 6.5
t-5 6.5q-2 20 -3 39t-6 40v24q0 2 -1 3q0 1 -0.5 1t-0.5 1v1q0 19 6.5 38.5t14.5 28.5q1 1 4 5.5t6 4.5t8.5 -3.5t10.5 -8t9 -9t4 -6.5q2 -9 3 -17.5t3 -17.5v-77q0 -2 0 -1t1 1v-35q0 -2 1.5 -8.5t3 -14.5t3 -15t1.5 -10q3 -21 2 -29.5t2 -9.5v-33q0 -2 0 -1t1 1v-37
q0 -2 0.5 -1t1.5 1v-28q0 -26 7.5 -49t22.5 -40.5t36.5 -27.5t48.5 -10q8 0 10 2h27q2 0 0.5 1t0.5 1h22q2 5 3 9t7 8h23q7 0 14 5.5t13 12.5t10 13t4 7q1 4 5 22t8.5 41.5t8 47.5t3.5 39v32q0 2 1 0.5t1 0.5v60q0 2 -1 1t-1 1v39q0 2 -1 1t-1 1v24q0 2 -0.5 1t-0.5 1v21
q0 5 -1 13.5t-2.5 18.5t-2.5 20t-1 17q0 5 0.5 9t11.5 9h27q1 0 5.5 -0.5t5.5 -0.5q3 0 5.5 -0.5t4.5 1.5h6q-2 -2 -2 -5.5t2 -4.5v-39q0 -2 0.5 -1t1.5 1z" />
    <glyph glyph-name="Ucircumflex" unicode="&#xdb;" horiz-adv-x="562" 
d="M489 468v-6t-1 -5v-46q0 -2 0 -1t-1 0v-33q0 -2 -0.5 -1t-1.5 0v-29q0 -2 -0.5 -1t-1.5 0v-29q0 -2 -0.5 -0.5t-1.5 0.5v-33q0 -2 0 -1t-1 0v-47q0 -2 -0.5 -1t-1.5 0v-82q0 -2 0.5 -1t1.5 1v-36q1 -2 1 -3v-3q0 -12 -13.5 -17t-23.5 -11q-9 -6 -16.5 -14.5t-15.5 -16
t-17.5 -12t-21.5 -2.5q-3 -2 -4 -9.5t-3 -7.5q-5 -1 -12.5 -0.5t-9.5 -2.5h-63q-12 0 -26 3.5t-27 8t-21.5 9t-9.5 5.5q-2 2 -3 6.5t-6 5.5q-49 10 -68 49t-25 96v27q0 2 -1 1t-1 1v145q-2 4 -5 6.5t-5 6.5q-2 20 -3 39t-6 40v24q0 2 -1 3q0 1 -0.5 1t-0.5 1v1
q0 19 6.5 38.5t14.5 28.5q1 1 4 5.5t6 4.5t8.5 -3.5t10.5 -8t9 -9t4 -6.5q2 -9 3 -17.5t3 -17.5v-77q0 -2 0 -1t1 1v-35q0 -2 1.5 -8.5t3 -14.5t3 -15t1.5 -10q3 -21 2 -29.5t2 -9.5v-33q0 -2 0 -1t1 1v-37q0 -2 0.5 -1t1.5 1v-28q0 -26 7.5 -49t22.5 -40.5t36.5 -27.5
t48.5 -10q8 0 10 2h27q2 0 0.5 1t0.5 1h22q2 5 3 9t7 8h23q7 0 14 5.5t13 12.5t10 13t4 7q1 4 5 22t8.5 41.5t8 47.5t3.5 39v32q0 2 1 0.5t1 0.5v60q0 2 -1 1t-1 1v39q0 2 -1 1t-1 1v24q0 2 -0.5 1t-0.5 1v21q0 5 -1 13.5t-2.5 18.5t-2.5 20t-1 17q0 5 0.5 9t11.5 9h27
q1 0 5.5 -0.5t5.5 -0.5q3 0 5.5 -0.5t4.5 1.5h6q-2 -2 -2 -5.5t2 -4.5v-39q0 -2 0.5 -1t1.5 1zM396 714q0 -13 -6.5 -24t-10.5 -13q-5 -2 -18 -7t-18 -5h-5t-5 2q-4 4 -12 10t-15.5 12t-13 10l-5.5 4q-10 0 -18.5 -5.5t-17.5 -12t-18.5 -12t-20.5 -5.5q-6 0 -14 4.5t-15 11
t-12 14t-5 13.5t5.5 12t13 10.5t15 7.5t10.5 3q1 0 3 -2t4 -2q5 0 12 6t14.5 13.5t15 13.5t14.5 6t14 -3.5l11 -5.5q2 -4 7 -6.5t9 -5.5q8 -6 17.5 -12.5t20.5 -11.5q6 -3 14 -4t14.5 -2t11 -4t4.5 -10z" />
    <glyph glyph-name="Udieresis" unicode="&#xdc;" horiz-adv-x="562" 
d="M489 468v-6t-1 -5v-46q0 -2 0 -1t-1 0v-33q0 -2 -0.5 -1t-1.5 0v-29q0 -2 -0.5 -1t-1.5 0v-29q0 -2 -0.5 -0.5t-1.5 0.5v-33q0 -2 0 -1t-1 0v-47q0 -2 -0.5 -1t-1.5 0v-82q0 -2 0.5 -1t1.5 1v-36q1 -2 1 -3v-3q0 -12 -13.5 -17t-23.5 -11q-9 -6 -16.5 -14.5t-15.5 -16
t-17.5 -12t-21.5 -2.5q-3 -2 -4 -9.5t-3 -7.5q-5 -1 -12.5 -0.5t-9.5 -2.5h-63q-12 0 -26 3.5t-27 8t-21.5 9t-9.5 5.5q-2 2 -3 6.5t-6 5.5q-49 10 -68 49t-25 96v27q0 2 -1 1t-1 1v145q-2 4 -5 6.5t-5 6.5q-2 20 -3 39t-6 40v24q0 2 -1 3q0 1 -0.5 1t-0.5 1v1
q0 19 6.5 38.5t14.5 28.5q1 1 4 5.5t6 4.5t8.5 -3.5t10.5 -8t9 -9t4 -6.5q2 -9 3 -17.5t3 -17.5v-77q0 -2 0 -1t1 1v-35q0 -2 1.5 -8.5t3 -14.5t3 -15t1.5 -10q3 -21 2 -29.5t2 -9.5v-33q0 -2 0 -1t1 1v-37q0 -2 0.5 -1t1.5 1v-28q0 -26 7.5 -49t22.5 -40.5t36.5 -27.5
t48.5 -10q8 0 10 2h27q2 0 0.5 1t0.5 1h22q2 5 3 9t7 8h23q7 0 14 5.5t13 12.5t10 13t4 7q1 4 5 22t8.5 41.5t8 47.5t3.5 39v32q0 2 1 0.5t1 0.5v60q0 2 -1 1t-1 1v39q0 2 -1 1t-1 1v24q0 2 -0.5 1t-0.5 1v21q0 5 -1 13.5t-2.5 18.5t-2.5 20t-1 17q0 5 0.5 9t11.5 9h27
q1 0 5.5 -0.5t5.5 -0.5q3 0 5.5 -0.5t4.5 1.5h6q-2 -2 -2 -5.5t2 -4.5v-39q0 -2 0.5 -1t1.5 1zM433 705q0 -25 -19 -45t-46 -20q-15 0 -22 3.5t-10.5 9.5t-5.5 14.5t-6 19.5l9 34q0 13 11 29t26 14q0 2 3.5 1t7 -2.5t6.5 -2t3 0.5q16 -7 25 -11.5t13 -10t4.5 -13t0.5 -21.5z
M260 725q0 -12 -5 -27t-13.5 -28t-20 -21.5t-25.5 -8.5q-15 0 -22 2.5t-10 7.5t-5 13t-6 19l-9 35q0 6 3.5 14.5t8.5 15t12.5 11t14.5 3.5q0 2 4.5 2.5t9.5 1.5t9 2t4 2q16 -7 26 -10t15 -6t7 -8.5t2 -19.5z" />
    <glyph glyph-name="germandbls" unicode="&#xdf;" horiz-adv-x="491" 
d="M415 133q0 -12 -6.5 -28t-16 -32.5t-19.5 -32.5t-16 -29q-2 -4 -9 -7.5t-12 -3.5q-23 0 -39.5 13.5t-16.5 36.5q0 18 9 26t20.5 14t20.5 13.5t9 22.5v34q0 2 3 10.5t3 15.5q0 41 -12.5 63t-27.5 37t-27.5 29t-12.5 39t8.5 46t18 39t18 33.5t8.5 27.5q0 13 -8 21t-20 12
t-24.5 5t-21.5 1q-3 0 -5.5 0.5t-4.5 -1.5h-22q-24 0 -41 -18t-17 -44v-33l10 -73v-24q0 -2 -1 -3t-2 -3q0 -1 -1 -6.5t-2 -12.5t-2 -13t-1 -7v-33q0 -2 0 -1t-1 0v-92q0 -1 1 -1v-29q0 -2 2 -10.5t5 -18.5t6 -19.5t5 -15.5v-29q0 -5 -3 -12.5t-8.5 -15t-12 -12.5t-12.5 -5
q-15 0 -22.5 12t-15.5 20q3 2 5.5 5.5t5.5 5.5v22l-11 59v20q0 2 1 1t1 1v21q0 2 0.5 0.5t0.5 0.5v27q0 2 1 1t1 1v60l2 5q0 4 -2 4v47q0 16 -7 38.5t-12 36.5v24q0 1 1 6t2 10.5t2.5 10.5t1.5 6q5 18 6.5 35t3.5 32.5t6 30.5t14 28q5 7 17 13t28 6q6 0 13.5 -1.5t9.5 -1.5
t6.5 1t8.5 2q5 1 14 0t14 4h55q24 0 43 -9t33 -24t24.5 -34t16.5 -39v-31q0 -11 -8.5 -18.5t-19 -16.5t-19 -23t-8.5 -38q0 -2 1 -8.5t1 -11.5q17 -17 28 -29.5t17.5 -25t9.5 -27t3 -34.5v-36q0 -3 3 -11q1 -2 0.5 -7t1.5 -7v-38z" />
    <glyph glyph-name="agrave" unicode="&#xe0;" 
d="M340 253q-3 15 -7.5 34.5t-17.5 34.5q-24 18 -55 23l-62 10v19q-2 0 -3 0.5t-3 0.5q-7 0 -12 -5t-9 -12t-7.5 -14.5t-7.5 -13.5q-15 -3 -21 -12q0 -5 -1.5 -18.5t-3.5 -27.5t-3.5 -26t-1.5 -14v-55q5 -7 4 -12.5t1 -15.5q2 -12 6 -19.5t15 -24.5q3 -4 12.5 -10.5
t22 -12.5t25.5 -10.5t22 -4.5h21q1 -2 3 -2h4q12 0 18 1t11 3t12 5.5t20 8.5q0 1 3 19t6.5 41t6 44.5t2.5 29.5v36zM488 33q0 -12 -6 -22.5t-8 -15.5q-15 1 -23.5 2t-17.5 3h-21q-2 0 -1 1t-1 1h-72q-2 0 -1 -1t-1 -1h-22q-4 0 -12.5 -1t-38.5 -6h-39q-22 0 -51 11.5
t-56 28.5t-47 36.5t-23 34.5q-1 6 -5 13v186q0 1 1.5 5t3 9t3.5 10t2 8q7 45 38.5 72t76.5 32h36q8 0 18 -4t20.5 -9.5t20.5 -9.5t18 -4q15 0 22 8.5t18 17.5q4 4 10.5 8t12.5 8q8 3 12.5 4.5t9.5 3.5h33q21 0 29 -12.5t8 -33.5q0 -5 -1 -6.5t-2 -9.5q-2 -15 -4.5 -34.5
t-2.5 -27.5v-28q0 -2 -0.5 -0.5t-1.5 0.5v-45q0 -2 -0.5 -1t-1.5 0v-91q0 -2 0.5 -1t1.5 1v-39q0 -2 0.5 -1t1.5 1v-23q0 -18 10 -29t21.5 -18.5t21.5 -14t10 -16.5zM355 596q0 -5 -4.5 -12t-10 -13.5t-10.5 -11t-6 -5.5q-8 2 -17.5 6t-16.5 15q-13 23 -33.5 30t-40.5 12
q-15 8 -33 22.5t-38 19.5q-3 5 -3.5 6.5t-0.5 6.5t2 9.5t5 13.5q1 2 1 6.5v8.5q8 8 11 7.5t8 -0.5q13 0 20 -8.5t20 -19.5q18 -16 27 -20.5t20 -12.5q4 -2 10.5 -4t11.5 -4q4 -2 8 -6.5t9 -6.5q16 -8 31.5 -10t21.5 -16q1 -1 4.5 -5t3.5 -8z" />
    <glyph glyph-name="aacute" unicode="&#xe1;" 
d="M340 253q-3 15 -7.5 34.5t-17.5 34.5q-24 18 -55 23l-62 10v19q-2 0 -3 0.5t-3 0.5q-7 0 -12 -5t-9 -12t-7.5 -14.5t-7.5 -13.5q-15 -3 -21 -12q0 -5 -1.5 -18.5t-3.5 -27.5t-3.5 -26t-1.5 -14v-55q5 -7 4 -12.5t1 -15.5q2 -12 6 -19.5t15 -24.5q3 -4 12.5 -10.5
t22 -12.5t25.5 -10.5t22 -4.5h21q1 -2 3 -2h4q12 0 18 1t11 3t12 5.5t20 8.5q0 1 3 19t6.5 41t6 44.5t2.5 29.5v36zM488 33q0 -12 -6 -22.5t-8 -15.5q-15 1 -23.5 2t-17.5 3h-21q-2 0 -1 1t-1 1h-72q-2 0 -1 -1t-1 -1h-22q-4 0 -12.5 -1t-38.5 -6h-39q-22 0 -51 11.5
t-56 28.5t-47 36.5t-23 34.5q-1 6 -5 13v186q0 1 1.5 5t3 9t3.5 10t2 8q7 45 38.5 72t76.5 32h36q8 0 18 -4t20.5 -9.5t20.5 -9.5t18 -4q15 0 22 8.5t18 17.5q4 4 10.5 8t12.5 8q8 3 12.5 4.5t9.5 3.5h33q21 0 29 -12.5t8 -33.5q0 -5 -1 -6.5t-2 -9.5q-2 -15 -4.5 -34.5
t-2.5 -27.5v-28q0 -2 -0.5 -0.5t-1.5 0.5v-45q0 -2 -0.5 -1t-1.5 0v-91q0 -2 0.5 -1t1.5 1v-39q0 -2 0.5 -1t1.5 1v-23q0 -18 10 -29t21.5 -18.5t21.5 -14t10 -16.5zM365 637q0 -8 -1.5 -6.5t-4.5 -5.5q-4 -10 -11.5 -13.5t-16.5 -5.5t-19 -6t-21 -15q-8 -3 -16 -5.5
t-16 -8.5q-4 -3 -12 -6.5t-15 -8.5q-2 -1 -9 -8t-15.5 -15t-16.5 -14t-13 -6t-7.5 1t-8.5 6q-2 5 -2.5 11t-1.5 11q0 1 -3.5 9t-3.5 9q0 12 11 15.5t18 7.5q5 3 11.5 8t13.5 9q15 9 17.5 12.5t11.5 5.5q13 3 26.5 6.5t26.5 13.5q4 3 8.5 9t10 12t12 11t15.5 6q1 1 1 2v2
q2 -1 7 -5.5t10 -11t9.5 -13.5t4.5 -13z" />
    <glyph glyph-name="acircumflex" unicode="&#xe2;" 
d="M340 253q-3 15 -7.5 34.5t-17.5 34.5q-24 18 -55 23l-62 10v19q-2 0 -3 0.5t-3 0.5q-7 0 -12 -5t-9 -12t-7.5 -14.5t-7.5 -13.5q-15 -3 -21 -12q0 -5 -1.5 -18.5t-3.5 -27.5t-3.5 -26t-1.5 -14v-55q5 -7 4 -12.5t1 -15.5q2 -12 6 -19.5t15 -24.5q3 -4 12.5 -10.5
t22 -12.5t25.5 -10.5t22 -4.5h21q1 -2 3 -2h4q12 0 18 1t11 3t12 5.5t20 8.5q0 1 3 19t6.5 41t6 44.5t2.5 29.5v36zM488 33q0 -12 -6 -22.5t-8 -15.5q-15 1 -23.5 2t-17.5 3h-21q-2 0 -1 1t-1 1h-72q-2 0 -1 -1t-1 -1h-22q-4 0 -12.5 -1t-38.5 -6h-39q-22 0 -51 11.5
t-56 28.5t-47 36.5t-23 34.5q-1 6 -5 13v186q0 1 1.5 5t3 9t3.5 10t2 8q7 45 38.5 72t76.5 32h36q8 0 18 -4t20.5 -9.5t20.5 -9.5t18 -4q15 0 22 8.5t18 17.5q4 4 10.5 8t12.5 8q8 3 12.5 4.5t9.5 3.5h33q21 0 29 -12.5t8 -33.5q0 -5 -1 -6.5t-2 -9.5q-2 -15 -4.5 -34.5
t-2.5 -27.5v-28q0 -2 -0.5 -0.5t-1.5 0.5v-45q0 -2 -0.5 -1t-1.5 0v-91q0 -2 0.5 -1t1.5 1v-39q0 -2 0.5 -1t1.5 1v-23q0 -18 10 -29t21.5 -18.5t21.5 -14t10 -16.5zM359 628q0 -13 -6.5 -24t-10.5 -13q-5 -2 -18 -7t-18 -5h-5t-5 2q-4 4 -12 10t-15.5 12t-13 10l-5.5 4
q-10 0 -18.5 -5.5t-17.5 -12t-18.5 -12t-20.5 -5.5q-6 0 -14 4.5t-15 11t-12 14t-5 13.5t5.5 12t13 10.5t15 7.5t10.5 3q1 0 3 -2t4 -2q5 0 12 6t14.5 13.5t15 13.5t14.5 6t14 -3.5l11 -5.5q2 -4 7 -6.5t9 -5.5q8 -6 17.5 -12.5t20.5 -11.5q6 -3 14 -4t14.5 -2t11 -4
t4.5 -10z" />
    <glyph glyph-name="atilde" unicode="&#xe3;" 
d="M340 253q-3 15 -7.5 34.5t-17.5 34.5q-24 18 -55 23l-62 10v19q-2 0 -3 0.5t-3 0.5q-7 0 -12 -5t-9 -12t-7.5 -14.5t-7.5 -13.5q-15 -3 -21 -12q0 -5 -1.5 -18.5t-3.5 -27.5t-3.5 -26t-1.5 -14v-55q5 -7 4 -12.5t1 -15.5q2 -12 6 -19.5t15 -24.5q3 -4 12.5 -10.5
t22 -12.5t25.5 -10.5t22 -4.5h21q1 -2 3 -2h4q12 0 18 1t11 3t12 5.5t20 8.5q0 1 3 19t6.5 41t6 44.5t2.5 29.5v36zM488 33q0 -12 -6 -22.5t-8 -15.5q-15 1 -23.5 2t-17.5 3h-21q-2 0 -1 1t-1 1h-72q-2 0 -1 -1t-1 -1h-22q-4 0 -12.5 -1t-38.5 -6h-39q-22 0 -51 11.5
t-56 28.5t-47 36.5t-23 34.5q-1 6 -5 13v186q0 1 1.5 5t3 9t3.5 10t2 8q7 45 38.5 72t76.5 32h36q8 0 18 -4t20.5 -9.5t20.5 -9.5t18 -4q15 0 22 8.5t18 17.5q4 4 10.5 8t12.5 8q8 3 12.5 4.5t9.5 3.5h33q21 0 29 -12.5t8 -33.5q0 -5 -1 -6.5t-2 -9.5q-2 -15 -4.5 -34.5
t-2.5 -27.5v-28q0 -2 -0.5 -0.5t-1.5 0.5v-45q0 -2 -0.5 -1t-1.5 0v-91q0 -2 0.5 -1t1.5 1v-39q0 -2 0.5 -1t1.5 1v-23q0 -18 10 -29t21.5 -18.5t21.5 -14t10 -16.5zM120 616q3 1 7 1h6t4 -1t0.5 0.5t-0.5 4t2 4.5t8 1q9 -2 9.5 1t6.5 7q7 4 11.5 8.5t13.5 4.5h31q7 0 15 -5
q4 -3 10 -5l26 -8l6 -6l4.5 -4.5t3.5 -4.5q2 -4 7 -5t16 -9q5 -4 8.5 -5t5.5 -1q3 0 3 1q1 0 3 1q4 2 8 7q5 5 11.5 8.5t8.5 18.5q1 11 30 11q7 0 10.5 -4.5t4.5 -10t1 -11v-7.5q0 -4 -2.5 -14t-4.5 -15t-5.5 -9t-8.5 -12t-15.5 -12.5t-13.5 -6.5q-4 -2 -17 -2h-15l-37 16
q-12 5 -16.5 7.5t-6.5 3.5t-2.5 2t-5.5 4q-9 5 -13.5 8.5t-18.5 7.5q-7 2 -9.5 2.5t-4 0.5t-2.5 0.5t-4 0.5q-7 2 -9.5 -2t-6.5 -6t-11.5 -7t-9.5 -10q-2 -6 -7 -10t-12 -11q-6 -6 -10 -6q-2 0 -4 1q-3 1 -7 2q-3 1 -7 1.5t-9 1.5q-4 1 -5.5 2t-2.5 2t-2 3t-5 5
q-7 5 -4 11.5t3 11.5t6 13q3 4 5 8l14 12z" />
    <glyph glyph-name="adieresis" unicode="&#xe4;" 
d="M340 253q-3 15 -7.5 34.5t-17.5 34.5q-24 18 -55 23l-62 10v19q-2 0 -3 0.5t-3 0.5q-7 0 -12 -5t-9 -12t-7.5 -14.5t-7.5 -13.5q-15 -3 -21 -12q0 -5 -1.5 -18.5t-3.5 -27.5t-3.5 -26t-1.5 -14v-55q5 -7 4 -12.5t1 -15.5q2 -12 6 -19.5t15 -24.5q3 -4 12.5 -10.5
t22 -12.5t25.5 -10.5t22 -4.5h21q1 -2 3 -2h4q12 0 18 1t11 3t12 5.5t20 8.5q0 1 3 19t6.5 41t6 44.5t2.5 29.5v36zM488 33q0 -12 -6 -22.5t-8 -15.5q-15 1 -23.5 2t-17.5 3h-21q-2 0 -1 1t-1 1h-72q-2 0 -1 -1t-1 -1h-22q-4 0 -12.5 -1t-38.5 -6h-39q-22 0 -51 11.5
t-56 28.5t-47 36.5t-23 34.5q-1 6 -5 13v186q0 1 1.5 5t3 9t3.5 10t2 8q7 45 38.5 72t76.5 32h36q8 0 18 -4t20.5 -9.5t20.5 -9.5t18 -4q15 0 22 8.5t18 17.5q4 4 10.5 8t12.5 8q8 3 12.5 4.5t9.5 3.5h33q21 0 29 -12.5t8 -33.5q0 -5 -1 -6.5t-2 -9.5q-2 -15 -4.5 -34.5
t-2.5 -27.5v-28q0 -2 -0.5 -0.5t-1.5 0.5v-45q0 -2 -0.5 -1t-1.5 0v-91q0 -2 0.5 -1t1.5 1v-39q0 -2 0.5 -1t1.5 1v-23q0 -18 10 -29t21.5 -18.5t21.5 -14t10 -16.5zM382 630q0 -25 -19 -45t-46 -20q-15 0 -22 3.5t-10.5 9.5t-5.5 14.5t-6 19.5l9 34q0 13 11 29t26 14
q0 2 3.5 1t7 -2.5t6.5 -2t3 0.5q16 -7 25 -11.5t13 -10t4.5 -13t0.5 -21.5zM209 650q0 -12 -5 -27t-13.5 -28t-20 -21.5t-25.5 -8.5q-15 0 -22 2.5t-10 7.5t-5 13t-6 19l-9 35q0 6 3.5 14.5t8.5 15t12.5 11t14.5 3.5q0 2 4.5 2.5t9.5 1.5t9 2t4 2q16 -7 26 -10t15 -6t7 -8.5
t2 -19.5z" />
    <glyph glyph-name="aring" unicode="&#xe5;" 
d="M340 253q-3 15 -7.5 34.5t-17.5 34.5q-24 18 -55 23l-62 10v19q-2 0 -3 0.5t-3 0.5q-7 0 -12 -5t-9 -12t-7.5 -14.5t-7.5 -13.5q-15 -3 -21 -12q0 -5 -1.5 -18.5t-3.5 -27.5t-3.5 -26t-1.5 -14v-55q5 -7 4 -12.5t1 -15.5q2 -12 6 -19.5t15 -24.5q3 -4 12.5 -10.5
t22 -12.5t25.5 -10.5t22 -4.5h21q1 -2 3 -2h4q12 0 18 1t11 3t12 5.5t20 8.5q0 1 3 19t6.5 41t6 44.5t2.5 29.5v36zM488 33q0 -12 -6 -22.5t-8 -15.5q-15 1 -23.5 2t-17.5 3h-21q-2 0 -1 1t-1 1h-72q-2 0 -1 -1t-1 -1h-22q-4 0 -12.5 -1t-38.5 -6h-39q-22 0 -51 11.5
t-56 28.5t-47 36.5t-23 34.5q-1 6 -5 13v186q0 1 1.5 5t3 9t3.5 10t2 8q7 45 38.5 72t76.5 32h36q8 0 18 -4t20.5 -9.5t20.5 -9.5t18 -4q15 0 22 8.5t18 17.5q4 4 10.5 8t12.5 8q8 3 12.5 4.5t9.5 3.5h33q21 0 29 -12.5t8 -33.5q0 -5 -1 -6.5t-2 -9.5q-2 -15 -4.5 -34.5
t-2.5 -27.5v-28q0 -2 -0.5 -0.5t-1.5 0.5v-45q0 -2 -0.5 -1t-1.5 0v-91q0 -2 0.5 -1t1.5 1v-39q0 -2 0.5 -1t1.5 1v-23q0 -18 10 -29t21.5 -18.5t21.5 -14t10 -16.5zM208 647q1 -1 1 -4v-12q2 -4 2.5 -11.5t1.5 -11.5q1 -2 5 -4t3 -4q-2 -2 1.5 -3.5t8.5 -3.5q13 -5 26 -5
l10 2q4 1 9 2q7 6 16 23t9 30v14q0 16 -13 27.5t-35 11.5h-10q-8 0 -21 -7.5t-13 -19.5v-13q0 -3 -1 -4v-7zM251 749l19 -1q12 -1 25.5 -5.5t25.5 -13t19.5 -21t7.5 -29.5v-14q0 -4 -2 -5l2 -1v-4q0 -5 0.5 -12t0.5 -17q-1 -24 -7.5 -43.5t-30.5 -34.5q-8 -2 -15.5 -4
t-16.5 -4q-6 0 -9 -0.5t-5 -1t-5 -1t-8 0.5q-5 -2 -9 -0.5t-3 -0.5l-14 8q-8 5 -17.5 9.5t-17.5 9t-14.5 9.5t-9.5 12q-5 12 -9.5 21t-2.5 23q2 6 1 8v22q0 17 4 27.5t9 19.5l8 8q8 8 8 9l4 6q3 3 6 5t7 5q9 8 14.5 8.5t17.5 -0.5q3 0 4 1h12z" />
    <glyph glyph-name="ae" unicode="&#xe6;" horiz-adv-x="792" 
d="M339 258q-3 14 -7.5 32t-16.5 32q-24 18 -55 23l-62 10v19q-2 0 -3 0.5t-3 0.5q-7 0 -12 -5t-9 -12t-7.5 -14.5t-7.5 -13.5q-15 -3 -21 -12q0 -5 -1.5 -18.5t-3.5 -27.5t-3.5 -26t-1.5 -14v-55q5 -7 4 -12.5t1 -15.5q2 -12 6 -19.5t15 -24.5q3 -4 12.5 -10.5t22 -12.5
t25.5 -10.5t22 -4.5h21q1 -2 3 -2h4q12 0 18 1t11 3t12 5.5t20 8.5q0 1 2.5 14.5t5 32.5t5.5 39t4 33v48v8zM609 352q0 5 -6 8.5t-13.5 6t-15.5 4t-11 1.5h-33q-10 -2 -21.5 -4.5t-22.5 -6.5t-20 -11t-14 -19v-21q2 5 10 2.5t10 -2.5h93q2 2 7.5 1.5t7.5 0.5q6 2 12.5 3
t11.5 3q5 17 5 24v10zM338 2q-2 0 -1 -1t-1 -1h-22q-4 0 -12.5 -1t-38.5 -6h-39q-22 0 -51 11.5t-56 28.5t-47 36.5t-23 34.5q-1 6 -5 13v186q0 1 1.5 5t3 9t3.5 10t2 8q7 45 38.5 72t76.5 32h36q8 0 18 -4t20.5 -9.5t20.5 -9.5t18 -4q15 0 22 8.5t18 17.5q4 4 10.5 8
t12.5 8q8 3 12.5 4.5t9.5 3.5h33q21 0 29 -12.5t8 -33.5v-4q5 2 12.5 6t9.5 6q7 5 19 11.5t24 8.5q8 2 18 1t12 3h33q2 0 11.5 -1t20.5 -3t20.5 -4t12.5 -5q2 -1 5 -7.5t8 -14t11.5 -14t13.5 -9.5h38l5 1q6 0 6 -4q0 -9 -2.5 -26.5t-5.5 -34.5t-6 -31t-4 -16q-2 -4 -4 -9.5
t-5 -9.5q-10 -14 -22 -22q-2 -2 -4 -3.5t-5 -3.5h-24q-2 0 -1 1t-1 1h-26q-2 0 -1 1t-1 1h-41q-5 0 -14.5 -3t-18.5 -6t-16 -6t-8 -3t-9 2.5t-17 5.5l-16.5 5.5t-9.5 2.5h-22q-7 -5 -8 -11.5t2 -11.5v-5h-4v-32q0 -2 0.5 -1t1.5 1v-11q9 -16 22.5 -33t26.5 -30.5t23.5 -21
t14.5 -3.5h56q2 0 1 1t1 1h37q23 0 35.5 -15t12.5 -36q0 -10 -5 -14.5t-13.5 -7t-18 -3t-18.5 -3.5h-21q-2 0 -1 -1t-1 -1h-25q-2 0 -0.5 1t-0.5 1h-24q-13 0 -32.5 5t-38.5 11.5t-33 12t-16 6.5q-5 2 -11 7t-11 13z" />
    <glyph glyph-name="ccedilla" unicode="&#xe7;" horiz-adv-x="500" 
d="M324 -8q-1 -8 -6 -13t-10.5 -11t-11 -14.5t-7.5 -21.5q-5 -6 -11 -13t-8 -16q-2 -4 -7 -12t-8 -15q-1 -2 -3 -11.5t-5 -21t-6.5 -21t-7.5 -12.5q-4 -2 -6.5 -2.5t-10.5 0.5q-4 3 -8 7.5t-7 8.5q-1 1 -8 5.5t-8 5.5q-7 11 0.5 19.5t11.5 15.5q3 6 5.5 13.5t5.5 14.5
q8 16 8.5 20t6.5 11q9 10 18.5 20.5t15.5 25.5q2 8 2 18q-10 -1 -18.5 3t-17 10.5t-17.5 13.5t-20 12q-2 1 -7.5 1h-10.5q2 3 1 10t-4.5 13.5t-10 12t-16.5 6.5q-7 7 -7 13q0 2 1.5 10t1.5 10q0 1 -5 12t-11.5 25.5t-11.5 30t-5 24.5q0 5 1.5 10t1.5 8v96q0 11 4.5 25t12 27
t16 22.5t16.5 11.5q1 6 0.5 15t0.5 15q4 2 7.5 4t8.5 4h28q2 0 1 -1t1 -1h13q1 2 0 3.5t-1 3.5q0 8 6.5 12.5t14.5 6.5h48q18 0 33.5 -10.5t35.5 -15.5h28q28 0 39 -18t11 -43q0 -14 -6.5 -28.5t-17.5 -24.5h-5q-1 4 -3 9.5t-6 7.5q-6 1 -13 2.5t-12 1.5q-17 13 -35.5 19.5
t-44.5 6.5q-18 0 -37.5 -9t-35.5 -23.5t-26.5 -32.5t-10.5 -37q0 -26 8.5 -49.5t8.5 -34.5q0 -43 23 -72q2 -3 10 -9.5t19 -13.5t23.5 -12.5t22.5 -5.5q11 0 27 5t30.5 10.5t25.5 10.5t13 5q23 0 33 -12t10 -32q0 -3 0.5 -5t0.5 -4.5t-1 -6t-5 -10.5q-2 -3 -12 -8l-14 -7
q-11 -5 -21.5 -10t-20.5 -7q-8 -2 -16 -3.5t-16 -3.5z" />
    <glyph glyph-name="egrave" unicode="&#xe8;" 
d="M347 352q0 5 -6 8.5t-13.5 6t-15.5 4t-11 1.5h-33q-10 -2 -21.5 -4.5t-22.5 -6.5t-20 -11t-14 -19v-21q2 5 10 2.5t10 -2.5h93q2 2 7.5 1.5t7.5 0.5q6 2 12.5 3t11.5 3q5 17 5 24v10zM453 387q0 -9 -2.5 -26.5t-5.5 -34.5t-6 -31t-4 -16q-2 -4 -4 -9.5t-5 -9.5
q-10 -14 -22 -22q-2 -2 -4 -3.5t-5 -3.5h-24q-2 0 -1 1t-1 1h-26q-2 0 -1 1t-1 1h-41q-5 0 -14.5 -3t-18.5 -6t-16 -6t-8 -3t-9 2.5t-17 5.5l-16.5 5.5t-9.5 2.5h-22q-7 -5 -8 -11.5t2 -11.5v-5q-5 1 -9.5 -2t-4.5 -9q0 -13 13.5 -35t31 -42.5t33.5 -34t21 -8.5h56q2 0 1 1
t1 1h37q23 0 35.5 -15t12.5 -36q0 -10 -5 -14.5t-13.5 -7t-18 -3t-18.5 -3.5h-21q-2 0 -1 -1t-1 -1h-25q-2 0 -0.5 1t-0.5 1h-24q-13 0 -32.5 5t-38.5 11.5t-33 12t-16 6.5q-5 2 -11 7t-11 13q-14 23 -27 57.5t-17 69.5v71q0 22 3.5 39.5t10.5 33t16.5 30t22.5 30.5q1 1 4 6
t7 10.5t9 10t10 4.5q2 0 4.5 -1.5t4.5 -1.5q1 0 4.5 2t8 4t8.5 4t5 3q7 5 19 11.5t24 8.5q8 2 18 1t12 3h33q2 0 11.5 -1t20.5 -3t20.5 -4t12.5 -5q2 -1 5 -7.5t8 -14t11.5 -14t13.5 -9.5h38l5 1q6 0 6 -4zM389 575q0 -5 -4.5 -12t-10 -13.5t-10.5 -11t-6 -5.5q-8 2 -17.5 6
t-16.5 15q-13 23 -33.5 30t-40.5 12q-15 8 -33 22.5t-38 19.5q-3 5 -3.5 6.5t-0.5 6.5t2 9.5t5 13.5q1 2 1 6.5v8.5q8 8 11 7.5t8 -0.5q13 0 20 -8.5t20 -19.5q18 -16 27 -20.5t20 -12.5q4 -2 10.5 -4t11.5 -4q4 -2 8 -6.5t9 -6.5q16 -8 31.5 -10t21.5 -16q1 -1 4.5 -5
t3.5 -8z" />
    <glyph glyph-name="eacute" unicode="&#xe9;" 
d="M347 352q0 5 -6 8.5t-13.5 6t-15.5 4t-11 1.5h-33q-10 -2 -21.5 -4.5t-22.5 -6.5t-20 -11t-14 -19v-21q2 5 10 2.5t10 -2.5h93q2 2 7.5 1.5t7.5 0.5q6 2 12.5 3t11.5 3q5 17 5 24v10zM453 387q0 -9 -2.5 -26.5t-5.5 -34.5t-6 -31t-4 -16q-2 -4 -4 -9.5t-5 -9.5
q-10 -14 -22 -22q-2 -2 -4 -3.5t-5 -3.5h-24q-2 0 -1 1t-1 1h-26q-2 0 -1 1t-1 1h-41q-5 0 -14.5 -3t-18.5 -6t-16 -6t-8 -3t-9 2.5t-17 5.5l-16.5 5.5t-9.5 2.5h-22q-7 -5 -8 -11.5t2 -11.5v-5q-5 1 -9.5 -2t-4.5 -9q0 -13 13.5 -35t31 -42.5t33.5 -34t21 -8.5h56q2 0 1 1
t1 1h37q23 0 35.5 -15t12.5 -36q0 -10 -5 -14.5t-13.5 -7t-18 -3t-18.5 -3.5h-21q-2 0 -1 -1t-1 -1h-25q-2 0 -0.5 1t-0.5 1h-24q-13 0 -32.5 5t-38.5 11.5t-33 12t-16 6.5q-5 2 -11 7t-11 13q-14 23 -27 57.5t-17 69.5v71q0 22 3.5 39.5t10.5 33t16.5 30t22.5 30.5q1 1 4 6
t7 10.5t9 10t10 4.5q2 0 4.5 -1.5t4.5 -1.5q1 0 4.5 2t8 4t8.5 4t5 3q7 5 19 11.5t24 8.5q8 2 18 1t12 3h33q2 0 11.5 -1t20.5 -3t20.5 -4t12.5 -5q2 -1 5 -7.5t8 -14t11.5 -14t13.5 -9.5h38l5 1q6 0 6 -4zM383 637q0 -8 -1.5 -6.5t-4.5 -5.5q-4 -10 -11.5 -13.5t-16.5 -5.5
t-19 -6t-21 -15q-8 -3 -16 -5.5t-16 -8.5q-4 -3 -12 -6.5t-15 -8.5q-2 -1 -9 -8t-15.5 -15t-16.5 -14t-13 -6t-7.5 1t-8.5 6q-2 5 -2.5 11t-1.5 11q0 1 -3.5 9t-3.5 9q0 12 11 15.5t18 7.5q5 3 11.5 8t13.5 9q15 9 17.5 12.5t11.5 5.5q13 3 26.5 6.5t26.5 13.5q4 3 8.5 9
t10 12t12 11t15.5 6q1 1 1 2v2q2 -1 7 -5.5t10 -11t9.5 -13.5t4.5 -13z" />
    <glyph glyph-name="ecircumflex" unicode="&#xea;" 
d="M347 352q0 5 -6 8.5t-13.5 6t-15.5 4t-11 1.5h-33q-10 -2 -21.5 -4.5t-22.5 -6.5t-20 -11t-14 -19v-21q2 5 10 2.5t10 -2.5h93q2 2 7.5 1.5t7.5 0.5q6 2 12.5 3t11.5 3q5 17 5 24v10zM453 387q0 -9 -2.5 -26.5t-5.5 -34.5t-6 -31t-4 -16q-2 -4 -4 -9.5t-5 -9.5
q-10 -14 -22 -22q-2 -2 -4 -3.5t-5 -3.5h-24q-2 0 -1 1t-1 1h-26q-2 0 -1 1t-1 1h-41q-5 0 -14.5 -3t-18.5 -6t-16 -6t-8 -3t-9 2.5t-17 5.5l-16.5 5.5t-9.5 2.5h-22q-7 -5 -8 -11.5t2 -11.5v-5q-5 1 -9.5 -2t-4.5 -9q0 -13 13.5 -35t31 -42.5t33.5 -34t21 -8.5h56q2 0 1 1
t1 1h37q23 0 35.5 -15t12.5 -36q0 -10 -5 -14.5t-13.5 -7t-18 -3t-18.5 -3.5h-21q-2 0 -1 -1t-1 -1h-25q-2 0 -0.5 1t-0.5 1h-24q-13 0 -32.5 5t-38.5 11.5t-33 12t-16 6.5q-5 2 -11 7t-11 13q-14 23 -27 57.5t-17 69.5v71q0 22 3.5 39.5t10.5 33t16.5 30t22.5 30.5q1 1 4 6
t7 10.5t9 10t10 4.5q2 0 4.5 -1.5t4.5 -1.5q1 0 4.5 2t8 4t8.5 4t5 3q7 5 19 11.5t24 8.5q8 2 18 1t12 3h33q2 0 11.5 -1t20.5 -3t20.5 -4t12.5 -5q2 -1 5 -7.5t8 -14t11.5 -14t13.5 -9.5h38l5 1q6 0 6 -4zM417 628q0 -13 -6.5 -24t-10.5 -13q-5 -2 -18 -7t-18 -5h-5t-5 2
q-4 4 -12 10t-15.5 12t-13 10l-5.5 4q-10 0 -18.5 -5.5t-17.5 -12t-18.5 -12t-20.5 -5.5q-6 0 -14 4.5t-15 11t-12 14t-5 13.5t5.5 12t13 10.5t15 7.5t10.5 3q1 0 3 -2t4 -2q5 0 12 6t14.5 13.5t15 13.5t14.5 6t14 -3.5l11 -5.5q2 -4 7 -6.5t9 -5.5q8 -6 17.5 -12.5
t20.5 -11.5q6 -3 14 -4t14.5 -2t11 -4t4.5 -10z" />
    <glyph glyph-name="edieresis" unicode="&#xeb;" 
d="M347 352q0 5 -6 8.5t-13.5 6t-15.5 4t-11 1.5h-33q-10 -2 -21.5 -4.5t-22.5 -6.5t-20 -11t-14 -19v-21q2 5 10 2.5t10 -2.5h93q2 2 7.5 1.5t7.5 0.5q6 2 12.5 3t11.5 3q5 17 5 24v10zM453 387q0 -9 -2.5 -26.5t-5.5 -34.5t-6 -31t-4 -16q-2 -4 -4 -9.5t-5 -9.5
q-10 -14 -22 -22q-2 -2 -4 -3.5t-5 -3.5h-24q-2 0 -1 1t-1 1h-26q-2 0 -1 1t-1 1h-41q-5 0 -14.5 -3t-18.5 -6t-16 -6t-8 -3t-9 2.5t-17 5.5l-16.5 5.5t-9.5 2.5h-22q-7 -5 -8 -11.5t2 -11.5v-5q-5 1 -9.5 -2t-4.5 -9q0 -13 13.5 -35t31 -42.5t33.5 -34t21 -8.5h56q2 0 1 1
t1 1h37q23 0 35.5 -15t12.5 -36q0 -10 -5 -14.5t-13.5 -7t-18 -3t-18.5 -3.5h-21q-2 0 -1 -1t-1 -1h-25q-2 0 -0.5 1t-0.5 1h-24q-13 0 -32.5 5t-38.5 11.5t-33 12t-16 6.5q-5 2 -11 7t-11 13q-14 23 -27 57.5t-17 69.5v71q0 22 3.5 39.5t10.5 33t16.5 30t22.5 30.5q1 1 4 6
t7 10.5t9 10t10 4.5q2 0 4.5 -1.5t4.5 -1.5q1 0 4.5 2t8 4t8.5 4t5 3q7 5 19 11.5t24 8.5q8 2 18 1t12 3h33q2 0 11.5 -1t20.5 -3t20.5 -4t12.5 -5q2 -1 5 -7.5t8 -14t11.5 -14t13.5 -9.5h38l5 1q6 0 6 -4zM429 652q0 -25 -19 -45t-46 -20q-15 0 -22 3.5t-10.5 9.5
t-5.5 14.5t-6 19.5l9 34q0 13 11 29t26 14q0 2 3.5 1t7 -2.5t6.5 -2t3 0.5q16 -7 25 -11.5t13 -10t4.5 -13t0.5 -21.5zM256 672q0 -12 -5 -27t-13.5 -28t-20 -21.5t-25.5 -8.5q-15 0 -22 2.5t-10 7.5t-5 13t-6 19l-9 35q0 6 3.5 14.5t8.5 15t12.5 11t14.5 3.5q0 2 4.5 2.5
t9.5 1.5t9 2t4 2q16 -7 26 -10t15 -6t7 -8.5t2 -19.5z" />
    <glyph glyph-name="igrave" unicode="&#xec;" horiz-adv-x="302" 
d="M180 167q0 -2 -0.5 -0.5t-1.5 0.5v-33q0 -1 -1.5 -11.5t-4 -25.5t-6 -32.5t-7.5 -32t-8.5 -24.5t-8.5 -10q-5 0 -12 4.5t-13 10.5t-10 12.5t-4 11.5q0 2 1.5 11t3 19.5t3 19.5t1.5 12v25q0 2 1 1t1 1v74q0 2 -1 0.5t-1 0.5v31q0 2 -1 0.5t-1 0.5v27q0 2 -1 0.5t-1 0.5v27
q0 2 -0.5 1t-0.5 1v99q0 14 4 21t17 22q1 3 1 6.5v6.5h19q3 -5 7.5 -11t9.5 -8q2 -2 4 -6t5 -3v-100q0 -2 0.5 -1t1.5 1v-42q0 -1 2 -1v-50q0 -1 2 -1v-56zM258 627q0 -5 -4.5 -12t-10 -13.5t-10.5 -11t-6 -5.5q-8 2 -17.5 6t-16.5 15q-13 23 -33.5 30t-40.5 12
q-15 8 -33 22.5t-38 19.5q-3 5 -3.5 6.5t-0.5 6.5t2 9.5t5 13.5q1 2 1 6.5v8.5q8 8 11 7.5t8 -0.5q13 0 20 -8.5t20 -19.5q18 -16 27 -20.5t20 -12.5q4 -2 10.5 -4t11.5 -4q4 -2 8 -6.5t9 -6.5q16 -8 31.5 -10t21.5 -16q1 -1 4.5 -5t3.5 -8z" />
    <glyph glyph-name="iacute" unicode="&#xed;" horiz-adv-x="302" 
d="M180 167q0 -2 -0.5 -0.5t-1.5 0.5v-33q0 -1 -1.5 -11.5t-4 -25.5t-6 -32.5t-7.5 -32t-8.5 -24.5t-8.5 -10q-5 0 -12 4.5t-13 10.5t-10 12.5t-4 11.5q0 2 1.5 11t3 19.5t3 19.5t1.5 12v25q0 2 1 1t1 1v74q0 2 -1 0.5t-1 0.5v31q0 2 -1 0.5t-1 0.5v27q0 2 -1 0.5t-1 0.5v27
q0 2 -0.5 1t-0.5 1v99q0 14 4 21t17 22q1 3 1 6.5v6.5h19q3 -5 7.5 -11t9.5 -8q2 -2 4 -6t5 -3v-100q0 -2 0.5 -1t1.5 1v-42q0 -1 2 -1v-50q0 -1 2 -1v-56zM268 660q0 -8 -1.5 -6.5t-4.5 -5.5q-4 -10 -11.5 -13.5t-16.5 -5.5t-19 -6t-21 -15q-8 -3 -16 -5.5t-16 -8.5
q-4 -3 -12 -6.5t-15 -8.5q-2 -1 -9 -8t-15.5 -15t-16.5 -14t-13 -6t-7.5 1t-8.5 6q-2 5 -2.5 11t-1.5 11q0 1 -3.5 9t-3.5 9q0 12 11 15.5t18 7.5q5 3 11.5 8t13.5 9q15 9 17.5 12.5t11.5 5.5q13 3 26.5 6.5t26.5 13.5q4 3 8.5 9t10 12t12 11t15.5 6q1 1 1 2v2q2 -1 7 -5.5
t10 -11t9.5 -13.5t4.5 -13z" />
    <glyph glyph-name="icircumflex" unicode="&#xee;" horiz-adv-x="302" 
d="M180 167q0 -2 -0.5 -0.5t-1.5 0.5v-33q0 -1 -1.5 -11.5t-4 -25.5t-6 -32.5t-7.5 -32t-8.5 -24.5t-8.5 -10q-5 0 -12 4.5t-13 10.5t-10 12.5t-4 11.5q0 2 1.5 11t3 19.5t3 19.5t1.5 12v25q0 2 1 1t1 1v74q0 2 -1 0.5t-1 0.5v31q0 2 -1 0.5t-1 0.5v27q0 2 -1 0.5t-1 0.5v27
q0 2 -0.5 1t-0.5 1v99q0 14 4 21t17 22q1 3 1 6.5v6.5h19q3 -5 7.5 -11t9.5 -8q2 -2 4 -6t5 -3v-100q0 -2 0.5 -1t1.5 1v-42q0 -1 2 -1v-50q0 -1 2 -1v-56zM268 651q0 -13 -6.5 -24t-10.5 -13q-5 -2 -18 -7t-18 -5h-5t-5 2q-4 4 -12 10t-15.5 12t-13 10l-5.5 4
q-10 0 -18.5 -5.5t-17.5 -12t-18.5 -12t-20.5 -5.5q-6 0 -14 4.5t-15 11t-12 14t-5 13.5t5.5 12t13 10.5t15 7.5t10.5 3q1 0 3 -2t4 -2q5 0 12 6t14.5 13.5t15 13.5t14.5 6t14 -3.5l11 -5.5q2 -4 7 -6.5t9 -5.5q8 -6 17.5 -12.5t20.5 -11.5q6 -3 14 -4t14.5 -2t11 -4
t4.5 -10z" />
    <glyph glyph-name="idieresis" unicode="&#xef;" horiz-adv-x="302" 
d="M180 167q0 -2 -0.5 -0.5t-1.5 0.5v-33q0 -1 -1.5 -11.5t-4 -25.5t-6 -32.5t-7.5 -32t-8.5 -24.5t-8.5 -10q-5 0 -12 4.5t-13 10.5t-10 12.5t-4 11.5q0 2 1.5 11t3 19.5t3 19.5t1.5 12v25q0 2 1 1t1 1v74q0 2 -1 0.5t-1 0.5v31q0 2 -1 0.5t-1 0.5v27q0 2 -1 0.5t-1 0.5v27
q0 2 -0.5 1t-0.5 1v99q0 14 4 21t17 22q1 3 1 6.5v6.5h19q3 -5 7.5 -11t9.5 -8q2 -2 4 -6t5 -3v-100q0 -2 0.5 -1t1.5 1v-42q0 -1 2 -1v-50q0 -1 2 -1v-56zM296 684q0 -25 -19 -45t-46 -20q-15 0 -22 3.5t-10.5 9.5t-5.5 14.5t-6 19.5l9 34q0 13 11 29t26 14q0 2 3.5 1
t7 -2.5t6.5 -2t3 0.5q16 -7 25 -11.5t13 -10t4.5 -13t0.5 -21.5zM123 704q0 -12 -5 -27t-13.5 -28t-20 -21.5t-25.5 -8.5q-15 0 -22 2.5t-10 7.5t-5 13t-6 19l-9 35q0 6 3.5 14.5t8.5 15t12.5 11t14.5 3.5q0 2 4.5 2.5t9.5 1.5t9 2t4 2q16 -7 26 -10t15 -6t7 -8.5t2 -19.5z
" />
    <glyph glyph-name="ntilde" unicode="&#xf1;" 
d="M131 616q3 1 7 1h6t4 -1t0.5 0.5t-0.5 4t2 4.5t8 1q9 -2 9.5 1t6.5 7q7 4 11.5 8.5t13.5 4.5h31q7 0 15 -5q4 -3 10 -5l26 -8l6 -6l4.5 -4.5t3.5 -4.5q2 -4 7 -5t16 -9q5 -4 8.5 -5t5.5 -1q3 0 3 1q1 0 3 1q4 2 8 7q5 5 11.5 8.5t8.5 18.5q1 11 30 11q7 0 10.5 -4.5
t4.5 -10t1 -11v-7.5q0 -4 -2.5 -14t-4.5 -15t-5.5 -9t-8.5 -12t-15.5 -12.5t-13.5 -6.5q-4 -2 -17 -2h-15l-37 16q-12 5 -16.5 7.5t-6.5 3.5t-2.5 2t-5.5 4q-9 5 -13.5 8.5t-18.5 7.5q-7 2 -9.5 2.5t-4 0.5t-2.5 0.5t-4 0.5q-7 2 -9.5 -2t-6.5 -6t-11.5 -7t-9.5 -10
q-2 -6 -7 -10t-12 -11q-6 -6 -10 -6q-2 0 -4 1q-3 1 -7 2q-3 1 -7 1.5t-9 1.5q-4 1 -5.5 2t-2.5 2t-2 3t-5 5q-7 5 -4 11.5t3 11.5t6 13q3 4 5 8l14 12zM449 217q0 -2 -0.5 -1t-1.5 0v-33q0 -2 -0.5 -1t-1.5 0v-23q0 -2 -0.5 -1t-1.5 0v-26q0 -2 0 -1t-1 0v-43q0 -1 -1 -5
t-1 -5q0 -8 2 -10v-38v-10.5t3 -9.5q-2 -5 -9 -5.5t-10 -4.5h-23q-10 0 -14.5 7t-6 17t-2 20t-2.5 16v24q0 2 -1 0.5t-1 0.5v30q0 2 -0.5 1t-0.5 1v35q0 2 -1 1t-1 1v32q0 2 -1 0.5t-1 0.5v25q0 3 -1.5 16t-3.5 24q-3 17 -4 32.5t-4.5 28.5t-11 23t-22.5 15q-4 2 -7 2.5
t-6 2.5h-38q-1 0 -11 -1t-22 -3t-23 -3.5t-15 -3.5t-14 -9.5t-18 -20.5q0 -2 -2 -16.5t-4.5 -36t-5 -46t-5 -46t-4 -36.5t-1.5 -17v-29q0 -2 0 -1t-1 0v-60q0 -1 1 -3.5t0 -7.5q-13 -5 -25 -7.5t-26 -6.5q-4 5 -6 20t-4 27v22q0 2 -1 1t-1 1v78q0 2 1 0.5t1 0.5v36
q0 2 0.5 0.5t0.5 0.5v32q0 2 1 1t1 1v92q0 4 -1.5 13t-3 18.5t-3 16.5t-1.5 8q0 3 8 12t17.5 18.5t18.5 17t11 7.5h26q2 0 0.5 -1t0.5 -1h43q2 0 0.5 1t0.5 1h30q2 0 1 1t1 1h63q12 0 28 -5t31 -12.5t27 -17t16 -17.5q2 -4 6 -8.5t7 -10.5q6 -13 11 -28.5t17 -17.5v-7t2 -7
v-27q0 -1 2 -1v-52z" />
    <glyph glyph-name="ograve" unicode="&#xf2;" 
d="M377 233q0 21 -9 44.5t-25.5 42.5t-38.5 31.5t-46 12.5h-22q-19 0 -33.5 -10t-24.5 -25t-15 -33t-5 -35v-30q0 -2 -1 -1t-1 -1v-28q0 -2 1 -1t1 -1v-29q2 -4 2.5 -12.5t2.5 -17.5q1 -6 1.5 -10.5t1.5 -9.5q0 -2 1.5 -4t0.5 -4q-4 -9 10 -18.5t36 -17.5t46 -13.5t38 -5.5
q4 0 15.5 3.5t12.5 4.5q7 8 16 24.5t16.5 36.5t13 41t5.5 37v29zM442 248q0 -2 0 -1t-1 0v-22q0 -6 -2.5 -21.5t-6.5 -35.5t-8.5 -41.5t-9 -40.5t-8 -32t-4.5 -16q-9 -20 -27 -32q-28 -8 -60 -16h-23q-1 -1 -3 -1q-1 0 -2 1h-25q-18 0 -41 9.5t-44.5 23.5t-37.5 29t-21 27
q-4 9 -11 23t-10 28q-3 13 -4 20.5t-2 12.5t-1 9t-2 9v45q0 15 7 44.5t16.5 59t19.5 50.5t15 20q2 -1 4.5 2t4.5 4q10 4 22.5 7.5t23.5 8.5q14 5 19.5 6t15.5 3h22q2 0 0.5 1t0.5 1h28q32 0 60 -12.5t49.5 -33.5t33.5 -49.5t12 -60.5v-29zM378 548q0 -5 -4.5 -12t-10 -13.5
t-10.5 -11t-6 -5.5q-8 2 -17.5 6t-16.5 15q-13 23 -33.5 30t-40.5 12q-15 8 -33 22.5t-38 19.5q-3 5 -3.5 6.5t-0.5 6.5t2 9.5t5 13.5q1 2 1 6.5v8.5q8 8 11 7.5t8 -0.5q13 0 20 -8.5t20 -19.5q18 -16 27 -20.5t20 -12.5q4 -2 10.5 -4t11.5 -4q4 -2 8 -6.5t9 -6.5
q16 -8 31.5 -10t21.5 -16q1 -1 4.5 -5t3.5 -8z" />
    <glyph glyph-name="oacute" unicode="&#xf3;" 
d="M377 233q0 21 -9 44.5t-25.5 42.5t-38.5 31.5t-46 12.5h-22q-19 0 -33.5 -10t-24.5 -25t-15 -33t-5 -35v-30q0 -2 -1 -1t-1 -1v-28q0 -2 1 -1t1 -1v-29q2 -4 2.5 -12.5t2.5 -17.5q1 -6 1.5 -10.5t1.5 -9.5q0 -2 1.5 -4t0.5 -4q-4 -9 10 -18.5t36 -17.5t46 -13.5t38 -5.5
q4 0 15.5 3.5t12.5 4.5q7 8 16 24.5t16.5 36.5t13 41t5.5 37v29zM442 248q0 -2 0 -1t-1 0v-22q0 -6 -2.5 -21.5t-6.5 -35.5t-8.5 -41.5t-9 -40.5t-8 -32t-4.5 -16q-9 -20 -27 -32q-28 -8 -60 -16h-23q-1 -1 -3 -1q-1 0 -2 1h-25q-18 0 -41 9.5t-44.5 23.5t-37.5 29t-21 27
q-4 9 -11 23t-10 28q-3 13 -4 20.5t-2 12.5t-1 9t-2 9v45q0 15 7 44.5t16.5 59t19.5 50.5t15 20q2 -1 4.5 2t4.5 4q10 4 22.5 7.5t23.5 8.5q14 5 19.5 6t15.5 3h22q2 0 0.5 1t0.5 1h28q32 0 60 -12.5t49.5 -33.5t33.5 -49.5t12 -60.5v-29zM368 637q0 -8 -1.5 -6.5t-4.5 -5.5
q-4 -10 -11.5 -13.5t-16.5 -5.5t-19 -6t-21 -15q-8 -3 -16 -5.5t-16 -8.5q-4 -3 -12 -6.5t-15 -8.5q-2 -1 -9 -8t-15.5 -15t-16.5 -14t-13 -6t-7.5 1t-8.5 6q-2 5 -2.5 11t-1.5 11q0 1 -3.5 9t-3.5 9q0 12 11 15.5t18 7.5q5 3 11.5 8t13.5 9q15 9 17.5 12.5t11.5 5.5
q13 3 26.5 6.5t26.5 13.5q4 3 8.5 9t10 12t12 11t15.5 6q1 1 1 2v2q2 -1 7 -5.5t10 -11t9.5 -13.5t4.5 -13z" />
    <glyph glyph-name="ocircumflex" unicode="&#xf4;" 
d="M377 233q0 21 -9 44.5t-25.5 42.5t-38.5 31.5t-46 12.5h-22q-19 0 -33.5 -10t-24.5 -25t-15 -33t-5 -35v-30q0 -2 -1 -1t-1 -1v-28q0 -2 1 -1t1 -1v-29q2 -4 2.5 -12.5t2.5 -17.5q1 -6 1.5 -10.5t1.5 -9.5q0 -2 1.5 -4t0.5 -4q-4 -9 10 -18.5t36 -17.5t46 -13.5t38 -5.5
q4 0 15.5 3.5t12.5 4.5q7 8 16 24.5t16.5 36.5t13 41t5.5 37v29zM442 248q0 -2 0 -1t-1 0v-22q0 -6 -2.5 -21.5t-6.5 -35.5t-8.5 -41.5t-9 -40.5t-8 -32t-4.5 -16q-9 -20 -27 -32q-28 -8 -60 -16h-23q-1 -1 -3 -1q-1 0 -2 1h-25q-18 0 -41 9.5t-44.5 23.5t-37.5 29t-21 27
q-4 9 -11 23t-10 28q-3 13 -4 20.5t-2 12.5t-1 9t-2 9v45q0 15 7 44.5t16.5 59t19.5 50.5t15 20q2 -1 4.5 2t4.5 4q10 4 22.5 7.5t23.5 8.5q14 5 19.5 6t15.5 3h22q2 0 0.5 1t0.5 1h28q32 0 60 -12.5t49.5 -33.5t33.5 -49.5t12 -60.5v-29zM398 565q0 -13 -6.5 -24t-10.5 -13
q-5 -2 -18 -7t-18 -5h-5t-5 2q-4 4 -12 10t-15.5 12t-13 10l-5.5 4q-10 0 -18.5 -5.5t-17.5 -12t-18.5 -12t-20.5 -5.5q-6 0 -14 4.5t-15 11t-12 14t-5 13.5t5.5 12t13 10.5t15 7.5t10.5 3q1 0 3 -2t4 -2q5 0 12 6t14.5 13.5t15 13.5t14.5 6t14 -3.5l11 -5.5q2 -4 7 -6.5
t9 -5.5q8 -6 17.5 -12.5t20.5 -11.5q6 -3 14 -4t14.5 -2t11 -4t4.5 -10z" />
    <glyph glyph-name="otilde" unicode="&#xf5;" 
d="M377 233q0 21 -9 44.5t-25.5 42.5t-38.5 31.5t-46 12.5h-22q-19 0 -33.5 -10t-24.5 -25t-15 -33t-5 -35v-30q0 -2 -1 -1t-1 -1v-28q0 -2 1 -1t1 -1v-29q2 -4 2.5 -12.5t2.5 -17.5q1 -6 1.5 -10.5t1.5 -9.5q0 -2 1.5 -4t0.5 -4q-4 -9 10 -18.5t36 -17.5t46 -13.5t38 -5.5
q4 0 15.5 3.5t12.5 4.5q7 8 16 24.5t16.5 36.5t13 41t5.5 37v29zM442 248q0 -2 0 -1t-1 0v-22q0 -6 -2.5 -21.5t-6.5 -35.5t-8.5 -41.5t-9 -40.5t-8 -32t-4.5 -16q-9 -20 -27 -32q-28 -8 -60 -16h-23q-1 -1 -3 -1q-1 0 -2 1h-25q-18 0 -41 9.5t-44.5 23.5t-37.5 29t-21 27
q-4 9 -11 23t-10 28q-3 13 -4 20.5t-2 12.5t-1 9t-2 9v45q0 15 7 44.5t16.5 59t19.5 50.5t15 20q2 -1 4.5 2t4.5 4q10 4 22.5 7.5t23.5 8.5q14 5 19.5 6t15.5 3h22q2 0 0.5 1t0.5 1h28q32 0 60 -12.5t49.5 -33.5t33.5 -49.5t12 -60.5v-29zM145 616q3 1 7 1h6t4 -1t0.5 0.5
t-0.5 4t2 4.5t8 1q9 -2 9.5 1t6.5 7q7 4 11.5 8.5t13.5 4.5h31q7 0 15 -5q4 -3 10 -5l26 -8l6 -6l4.5 -4.5t3.5 -4.5q2 -4 7 -5t16 -9q5 -4 8.5 -5t5.5 -1q3 0 3 1q1 0 3 1q4 2 8 7q5 5 11.5 8.5t8.5 18.5q1 11 30 11q7 0 10.5 -4.5t4.5 -10t1 -11v-7.5q0 -4 -2.5 -14
t-4.5 -15t-5.5 -9t-8.5 -12t-15.5 -12.5t-13.5 -6.5q-4 -2 -17 -2h-15l-37 16q-12 5 -16.5 7.5t-6.5 3.5t-2.5 2t-5.5 4q-9 5 -13.5 8.5t-18.5 7.5q-7 2 -9.5 2.5t-4 0.5t-2.5 0.5t-4 0.5q-7 2 -9.5 -2t-6.5 -6t-11.5 -7t-9.5 -10q-2 -6 -7 -10t-12 -11q-6 -6 -10 -6
q-2 0 -4 1q-3 1 -7 2q-3 1 -7 1.5t-9 1.5q-4 1 -5.5 2t-2.5 2t-2 3t-5 5q-7 5 -4 11.5t3 11.5t6 13q3 4 5 8l14 12z" />
    <glyph glyph-name="odieresis" unicode="&#xf6;" 
d="M377 233q0 21 -9 44.5t-25.5 42.5t-38.5 31.5t-46 12.5h-22q-19 0 -33.5 -10t-24.5 -25t-15 -33t-5 -35v-30q0 -2 -1 -1t-1 -1v-28q0 -2 1 -1t1 -1v-29q2 -4 2.5 -12.5t2.5 -17.5q1 -6 1.5 -10.5t1.5 -9.5q0 -2 1.5 -4t0.5 -4q-4 -9 10 -18.5t36 -17.5t46 -13.5t38 -5.5
q4 0 15.5 3.5t12.5 4.5q7 8 16 24.5t16.5 36.5t13 41t5.5 37v29zM442 248q0 -2 0 -1t-1 0v-22q0 -6 -2.5 -21.5t-6.5 -35.5t-8.5 -41.5t-9 -40.5t-8 -32t-4.5 -16q-9 -20 -27 -32q-28 -8 -60 -16h-23q-1 -1 -3 -1q-1 0 -2 1h-25q-18 0 -41 9.5t-44.5 23.5t-37.5 29t-21 27
q-4 9 -11 23t-10 28q-3 13 -4 20.5t-2 12.5t-1 9t-2 9v45q0 15 7 44.5t16.5 59t19.5 50.5t15 20q2 -1 4.5 2t4.5 4q10 4 22.5 7.5t23.5 8.5q14 5 19.5 6t15.5 3h22q2 0 0.5 1t0.5 1h28q32 0 60 -12.5t49.5 -33.5t33.5 -49.5t12 -60.5v-29zM421 612q0 -25 -19 -45t-46 -20
q-15 0 -22 3.5t-10.5 9.5t-5.5 14.5t-6 19.5l9 34q0 13 11 29t26 14q0 2 3.5 1t7 -2.5t6.5 -2t3 0.5q16 -7 25 -11.5t13 -10t4.5 -13t0.5 -21.5zM248 632q0 -12 -5 -27t-13.5 -28t-20 -21.5t-25.5 -8.5q-15 0 -22 2.5t-10 7.5t-5 13t-6 19l-9 35q0 6 3.5 14.5t8.5 15
t12.5 11t14.5 3.5q0 2 4.5 2.5t9.5 1.5t9 2t4 2q16 -7 26 -10t15 -6t7 -8.5t2 -19.5z" />
    <glyph glyph-name="divide" unicode="&#xf7;" horiz-adv-x="498" 
d="M319 83q0 -3 -0.5 -8.5t-2 -11t-4 -10t-6.5 -4.5q-2 0 -5.5 1t-5.5 1h-5t-17 -5h-22q-20 0 -32.5 16.5t-12.5 33.5q0 6 2.5 15.5t7 19.5t11 17t14.5 7q9 0 14 -5.5t9 -5.5q2 0 10 4.5t17 4.5q11 0 18.5 -8t9.5 -20v-42zM431 328q0 -1 -1 -4l-2 -6q-9 -15 -22 -17t-24 -5
h-32q-2 0 -1 1t-1 1h-29q-8 0 -18 2.5t-18 2.5q-1 0 -1 -2h-144q-2 0 -1 -0.5t-1 -0.5h-23q-2 0 -4.5 -1t-4.5 -1q-21 0 -28 14.5t-7 31.5t8 33t27 16q5 0 11.5 -2t8.5 -3q5 -1 9.5 -0.5t7.5 -1.5h157q2 0 1 1t1 1h39q2 0 1 0.5t1 0.5h21q8 0 20.5 3.5t21.5 3.5
q10 0 16 -3.5t11 -17.5v-47zM324 576q0 -2 -3 -9.5t-6.5 -16.5t-7.5 -16.5t-6 -9.5q-4 -3 -9.5 -4.5t-9.5 -1.5q-9 0 -19.5 4t-13.5 6q-8 3 -17 6.5t-17 6.5q-4 2 -6.5 9.5t-2.5 11.5q0 16 7.5 33t13.5 23q10 11 17 13t15 5q5 -2 12.5 -2.5t12.5 -1.5q3 0 4 -7.5t6 -14.5
q4 -6 10.5 -10t12.5 -9q1 -5 4 -6t3 -9z" />
    <glyph glyph-name="ugrave" unicode="&#xf9;" 
d="M473 56q0 -13 -5 -26.5t-14 -24t-21 -17t-25 -6.5q-4 -3 -8.5 -8t-8.5 -8q-4 0 -5.5 6t-4.5 10q-8 10 -16 13t-13 5h-28q-1 0 -11.5 -3t-22.5 -6t-22.5 -6t-12.5 -3q-4 0 -7 -0.5t-6.5 -1t-9.5 -1.5t-17 -4h-41q-5 0 -16.5 3t-13.5 4q-1 11 -16.5 18t-26.5 11
q-1 4 -0.5 8t-1.5 8q-2 5 -9.5 9t-9.5 12q-3 10 -5.5 22.5t-13.5 17.5q-1 5 -2.5 15t-1.5 17q0 3 1 5t1 4v23q0 2 1.5 15.5t3.5 34t4.5 45.5l5 50t4 47t1.5 36q0 -1 2 -5q4 2 6 3.5t6 3.5q0 1 -1 1.5t-1 1.5q5 2 10 2.5t11 2.5h26q11 -6 11.5 -15.5t4.5 -17.5v-52l-9 -72
v-55q0 -1 2 -1v-22q0 -44 20 -73t65 -31h38q8 0 24.5 3t33 9t29 14.5t12.5 19.5q0 1 -2 5v43q0 2 -1 1t-1 1v69q0 2 -0.5 0.5t-0.5 0.5v37q0 3 -1 12.5t-3 19t-4 18t-4 9.5q-3 7 -4 16t-6 11q1 11 -2 18t-3 17t7.5 11t17.5 6h22q20 0 30.5 -18t15 -41t5.5 -44.5t4 -28.5v-82
q0 -2 -0.5 -1t-1.5 0v-38q0 -2 0 -1t-1 0v-55h31q3 -7 4.5 -14.5t1.5 -12.5zM366 529q0 -5 -4.5 -12t-10 -13.5t-10.5 -11t-6 -5.5q-8 2 -17.5 6t-16.5 15q-13 23 -33.5 30t-40.5 12q-15 8 -33 22.5t-38 19.5q-3 5 -3.5 6.5t-0.5 6.5t2 9.5t5 13.5q1 2 1 6.5v8.5q8 8 11 7.5
t8 -0.5q13 0 20 -8.5t20 -19.5q18 -16 27 -20.5t20 -12.5q4 -2 10.5 -4t11.5 -4q4 -2 8 -6.5t9 -6.5q16 -8 31.5 -10t21.5 -16q1 -1 4.5 -5t3.5 -8z" />
    <glyph glyph-name="uacute" unicode="&#xfa;" 
d="M473 56q0 -13 -5 -26.5t-14 -24t-21 -17t-25 -6.5q-4 -3 -8.5 -8t-8.5 -8q-4 0 -5.5 6t-4.5 10q-8 10 -16 13t-13 5h-28q-1 0 -11.5 -3t-22.5 -6t-22.5 -6t-12.5 -3q-4 0 -7 -0.5t-6.5 -1t-9.5 -1.5t-17 -4h-41q-5 0 -16.5 3t-13.5 4q-1 11 -16.5 18t-26.5 11
q-1 4 -0.5 8t-1.5 8q-2 5 -9.5 9t-9.5 12q-3 10 -5.5 22.5t-13.5 17.5q-1 5 -2.5 15t-1.5 17q0 3 1 5t1 4v23q0 2 1.5 15.5t3.5 34t4.5 45.5l5 50t4 47t1.5 36q0 -1 2 -5q4 2 6 3.5t6 3.5q0 1 -1 1.5t-1 1.5q5 2 10 2.5t11 2.5h26q11 -6 11.5 -15.5t4.5 -17.5v-52l-9 -72
v-55q0 -1 2 -1v-22q0 -44 20 -73t65 -31h38q8 0 24.5 3t33 9t29 14.5t12.5 19.5q0 1 -2 5v43q0 2 -1 1t-1 1v69q0 2 -0.5 0.5t-0.5 0.5v37q0 3 -1 12.5t-3 19t-4 18t-4 9.5q-3 7 -4 16t-6 11q1 11 -2 18t-3 17t7.5 11t17.5 6h22q20 0 30.5 -18t15 -41t5.5 -44.5t4 -28.5v-82
q0 -2 -0.5 -1t-1.5 0v-38q0 -2 0 -1t-1 0v-55h31q3 -7 4.5 -14.5t1.5 -12.5zM375 611q0 -8 -1.5 -6.5t-4.5 -5.5q-4 -10 -11.5 -13.5t-16.5 -5.5t-19 -6t-21 -15q-8 -3 -16 -5.5t-16 -8.5q-4 -3 -12 -6.5t-15 -8.5q-2 -1 -9 -8t-15.5 -15t-16.5 -14t-13 -6t-7.5 1t-8.5 6
q-2 5 -2.5 11t-1.5 11q0 1 -3.5 9t-3.5 9q0 12 11 15.5t18 7.5q5 3 11.5 8t13.5 9q15 9 17.5 12.5t11.5 5.5q13 3 26.5 6.5t26.5 13.5q4 3 8.5 9t10 12t12 11t15.5 6q1 1 1 2v2q2 -1 7 -5.5t10 -11t9.5 -13.5t4.5 -13z" />
    <glyph glyph-name="ucircumflex" unicode="&#xfb;" 
d="M473 56q0 -13 -5 -26.5t-14 -24t-21 -17t-25 -6.5q-4 -3 -8.5 -8t-8.5 -8q-4 0 -5.5 6t-4.5 10q-8 10 -16 13t-13 5h-28q-1 0 -11.5 -3t-22.5 -6t-22.5 -6t-12.5 -3q-4 0 -7 -0.5t-6.5 -1t-9.5 -1.5t-17 -4h-41q-5 0 -16.5 3t-13.5 4q-1 11 -16.5 18t-26.5 11
q-1 4 -0.5 8t-1.5 8q-2 5 -9.5 9t-9.5 12q-3 10 -5.5 22.5t-13.5 17.5q-1 5 -2.5 15t-1.5 17q0 3 1 5t1 4v23q0 2 1.5 15.5t3.5 34t4.5 45.5l5 50t4 47t1.5 36q0 -1 2 -5q4 2 6 3.5t6 3.5q0 1 -1 1.5t-1 1.5q5 2 10 2.5t11 2.5h26q11 -6 11.5 -15.5t4.5 -17.5v-52l-9 -72
v-55q0 -1 2 -1v-22q0 -44 20 -73t65 -31h38q8 0 24.5 3t33 9t29 14.5t12.5 19.5q0 1 -2 5v43q0 2 -1 1t-1 1v69q0 2 -0.5 0.5t-0.5 0.5v37q0 3 -1 12.5t-3 19t-4 18t-4 9.5q-3 7 -4 16t-6 11q1 11 -2 18t-3 17t7.5 11t17.5 6h22q20 0 30.5 -18t15 -41t5.5 -44.5t4 -28.5v-82
q0 -2 -0.5 -1t-1.5 0v-38q0 -2 0 -1t-1 0v-55h31q3 -7 4.5 -14.5t1.5 -12.5zM390 572q0 -13 -6.5 -24t-10.5 -13q-5 -2 -18 -7t-18 -5h-5t-5 2q-4 4 -12 10t-15.5 12t-13 10l-5.5 4q-10 0 -18.5 -5.5t-17.5 -12t-18.5 -12t-20.5 -5.5q-6 0 -14 4.5t-15 11t-12 14t-5 13.5
t5.5 12t13 10.5t15 7.5t10.5 3q1 0 3 -2t4 -2q5 0 12 6t14.5 13.5t15 13.5t14.5 6t14 -3.5l11 -5.5q2 -4 7 -6.5t9 -5.5q8 -6 17.5 -12.5t20.5 -11.5q6 -3 14 -4t14.5 -2t11 -4t4.5 -10z" />
    <glyph glyph-name="udieresis" unicode="&#xfc;" 
d="M473 56q0 -13 -5 -26.5t-14 -24t-21 -17t-25 -6.5q-4 -3 -8.5 -8t-8.5 -8q-4 0 -5.5 6t-4.5 10q-8 10 -16 13t-13 5h-28q-1 0 -11.5 -3t-22.5 -6t-22.5 -6t-12.5 -3q-4 0 -7 -0.5t-6.5 -1t-9.5 -1.5t-17 -4h-41q-5 0 -16.5 3t-13.5 4q-1 11 -16.5 18t-26.5 11
q-1 4 -0.5 8t-1.5 8q-2 5 -9.5 9t-9.5 12q-3 10 -5.5 22.5t-13.5 17.5q-1 5 -2.5 15t-1.5 17q0 3 1 5t1 4v23q0 2 1.5 15.5t3.5 34t4.5 45.5l5 50t4 47t1.5 36q0 -1 2 -5q4 2 6 3.5t6 3.5q0 1 -1 1.5t-1 1.5q5 2 10 2.5t11 2.5h26q11 -6 11.5 -15.5t4.5 -17.5v-52l-9 -72
v-55q0 -1 2 -1v-22q0 -44 20 -73t65 -31h38q8 0 24.5 3t33 9t29 14.5t12.5 19.5q0 1 -2 5v43q0 2 -1 1t-1 1v69q0 2 -0.5 0.5t-0.5 0.5v37q0 3 -1 12.5t-3 19t-4 18t-4 9.5q-3 7 -4 16t-6 11q1 11 -2 18t-3 17t7.5 11t17.5 6h22q20 0 30.5 -18t15 -41t5.5 -44.5t4 -28.5v-82
q0 -2 -0.5 -1t-1.5 0v-38q0 -2 0 -1t-1 0v-55h31q3 -7 4.5 -14.5t1.5 -12.5zM399 549q0 -25 -19 -45t-46 -20q-15 0 -22 3.5t-10.5 9.5t-5.5 14.5t-6 19.5l9 34q0 13 11 29t26 14q0 2 3.5 1t7 -2.5t6.5 -2t3 0.5q16 -7 25 -11.5t13 -10t4.5 -13t0.5 -21.5zM226 569
q0 -12 -5 -27t-13.5 -28t-20 -21.5t-25.5 -8.5q-15 0 -22 2.5t-10 7.5t-5 13t-6 19l-9 35q0 6 3.5 14.5t8.5 15t12.5 11t14.5 3.5q0 2 4.5 2.5t9.5 1.5t9 2t4 2q16 -7 26 -10t15 -6t7 -8.5t2 -19.5z" />
    <glyph glyph-name="ydieresis" unicode="&#xff;" horiz-adv-x="482" 
d="M439 358q0 -2 -2.5 -11t-5.5 -19.5t-6.5 -21t-5.5 -15.5q-5 -14 -12.5 -32t-16 -36.5t-17 -35.5t-15.5 -30q-30 -57 -48 -93.5t-26 -52.5q-11 -23 -18.5 -40t-12 -29.5t-7.5 -23t-6 -20.5q-2 -6 -3.5 -18t-4.5 -26t-7.5 -28.5t-12.5 -25.5q-12 -17 -22.5 -33.5
t-30.5 -16.5q-11 0 -20 3.5t-18 5.5q-5 3 -5.5 8t-2.5 8v24q0 3 4 11l4 8q9 13 21.5 25t21.5 35q2 5 4 16.5t5 20.5q1 2 6 16t11 31.5t10.5 34t4.5 23.5v43q0 4 -2.5 10t-5.5 12.5t-5.5 11.5t-3.5 6q-14 23 -29 45.5t-26 48.5q-8 9 -14 21l-12 24q-12 24 -19 42.5t-18 34.5
q-9 14 -14.5 19.5t-8 8.5t-3.5 5.5t-1 9.5q0 12 7 25t9 21h33q16 0 30.5 -10.5t23.5 -22.5q20 -56 41 -103.5t50 -92.5q5 -8 8.5 -8t5.5 -2q17 2 26 11.5t17 19.5q13 16 21 36t24 51q1 2 7 12.5t13 24t12.5 27t5.5 21.5v25q0 2 -0.5 2t-0.5 2q7 2 21 3t16 1q11 0 16 -3.5
t10 -16.5v-27z" />
    <glyph glyph-name="dotlessi" unicode="&#x131;" horiz-adv-x="302" 
d="M180 167q0 -2 -0.5 -0.5t-1.5 0.5v-33q0 -1 -1.5 -11.5t-4 -25.5t-6 -32.5t-7.5 -32t-8.5 -24.5t-8.5 -10q-5 0 -12 4.5t-13 10.5t-10 12.5t-4 11.5q0 2 1.5 11t3 19.5t3 19.5t1.5 12v25q0 2 1 1t1 1v74q0 2 -1 0.5t-1 0.5v31q0 2 -1 0.5t-1 0.5v27q0 2 -1 0.5t-1 0.5v27
q0 2 -0.5 1t-0.5 1v99q0 14 4 21t17 22q1 3 1 6.5v6.5h19q3 -5 7.5 -11t9.5 -8q2 -2 4 -6t5 -3v-100q0 -2 0.5 -1t1.5 1v-42q0 -1 2 -1v-50q0 -1 2 -1v-56z" />
    <glyph glyph-name="OE" unicode="&#x152;" horiz-adv-x="876" 
d="M429 330q0 24 -4.5 41t-10.5 32t-13.5 29t-13.5 30q-10 2 -17.5 12.5t-14.5 15.5q-18 12 -36.5 13t-35.5 6q2 12 -3 14.5t-14 2.5q-17 0 -28.5 -8.5t-28.5 -25.5q-5 -5 -10 -8t-11 -7q-3 -2 -9.5 -3.5t-8.5 -4.5q-3 0 -7.5 -12.5t-9 -29.5t-7.5 -33.5t-3 -24.5v-22
q0 -2 -1 -0.5t-1 -0.5v-112q0 -2 1 -0.5t1 -0.5v-75q18 -3 31.5 -14t27 -24t28.5 -23t36 -12q5 0 12 -2.5t11 -2.5h36q14 4 29.5 6t23.5 9q8 6 14.5 16.5t8.5 15.5q2 6 5.5 23t7.5 37.5t7.5 41t5.5 32.5q-2 4 -2 5q1 1 3 5v3v24q1 1 1 0t0 1v31zM442 81q-15 -18 -26.5 -31
t-24 -21.5t-28 -13t-38.5 -4.5q-1 0 -5 2h-22q-8 0 -27.5 5t-40.5 11t-38 12t-20 8q-11 8 -23.5 16t-26.5 24q-12 13 -19 29.5t-11 35t-6.5 38t-5.5 37.5v21q0 2 -1 1t-1 1v69q0 21 5.5 50t12.5 57t13.5 49.5t9.5 25.5q7 5 14 9t12 11q1 8 -1 16.5t3 10.5q15 3 26 6
t21.5 6.5t21.5 8t26 8.5h82q0 -5 3.5 -8t5.5 -8h24q4 0 17 -4.5t27.5 -10.5t26.5 -11t13 -6q3 -1 9 -9q2 7 3.5 11.5t2.5 5.5h38q1 0 9 1.5t17.5 4t19 4.5t12.5 2q5 1 12 1.5t14 2.5q5 1 10.5 0.5t9.5 1.5h23q2 0 1 0.5t1 0.5h97q2 0 3 -1h25q2 0 8 -0.5t14.5 -1t17 -1.5
t15.5 -3q2 -1 3.5 -1.5t3.5 -1.5t3.5 -6t3.5 -9v-31q0 -3 -2 -11.5t2 -9.5h-18q-2 0 -1 1t-1 1h-65q-1 0 -14 2.5t-28.5 5.5t-29.5 5.5t-17 2.5h-27q-2 0 -1 0.5t-1 0.5h-37q-2 0 -1 -0.5t-1 -0.5h-28q-6 0 -16 -1.5t-17 -3.5q-3 -1 -9 -1.5t-8 -3.5q-1 -3 -3 -13t-4 -21
t-4 -20t-2 -11v-54q0 -12 5 -25.5t13.5 -25.5t20 -19.5t24.5 -7.5h50q2 0 7.5 1t10.5 3q4 1 9 0.5t9 1.5h24q1 0 2.5 0.5t3.5 0.5q10 0 21 -1.5t21 -4.5t18.5 -7t12.5 -8v-22q0 -9 -13 -11.5t-19 -4.5h-60q-4 0 -14.5 -2l-21 -4t-19 -4.5t-10.5 -2.5h-28q-2 0 -1 1t-1 1h-57
l-1 -1q-1 -1 -4 -1l12 -101v-24q0 -2 0 -1t1 1v-31q0 -2 -0.5 -1t-1.5 0v-18q9 -2 17.5 -3t17.5 -3h21q2 0 1 -1t1 -1h42q2 0 1 1t1 1h27q3 0 24.5 2t47 5t48 6t27.5 4h12q-1 -10 8 -14.5t16 -8.5q0 -7 2 -12t2 -12q0 -17 -7 -26t-26 -9q-3 0 -6 -0.5t-4 1.5h-85
q-2 0 -1 -0.5t-1 -0.5h-26q-2 0 -1 -1t-1 -1h-26q-2 0 -1 -1t-1 -1h-83q-14 0 -31.5 4t-32.5 9t-25.5 10t-11.5 6v23q0 2 -1 1t-1 1v50z" />
    <glyph glyph-name="oe" unicode="&#x153;" horiz-adv-x="833" 
d="M377 233q0 21 -9.5 44.5t-25.5 42.5t-38 31.5t-46 12.5h-22q-19 0 -33.5 -9.5t-24.5 -24.5t-15 -33.5t-5 -35.5v-30q0 -2 -1 -1t-1 -1v-28q0 -2 1 -1t1 -1v-29q2 -4 2.5 -12.5t2.5 -17.5q1 -6 1.5 -10.5t1.5 -9.5q0 -2 1.5 -4t0.5 -4q-4 -9 10 -18.5t36 -17.5t46 -13.5
t38 -5.5q4 0 15.5 3.5t12.5 4.5q7 8 16 24.5t16.5 36.5t13 41t5.5 37v29zM650 352q0 5 -6 8.5t-13.5 6t-15.5 4t-11 1.5h-33q-10 -2 -21.5 -4.5t-22.5 -6.5t-20 -11t-14 -19v-21q2 5 10 2.5t10 -2.5h93q2 2 7.5 1.5t7.5 0.5q6 2 12.5 3t11.5 3q5 17 5 24v10zM411 74
q-3 -14 -5.5 -24t-3.5 -12q-9 -20 -27 -32q-28 -8 -60 -16h-23q-1 -1 -3 -1q-1 0 -2 1h-25q-18 0 -41 9.5t-44.5 23.5t-37.5 29t-21 27q-4 9 -11 23t-10 28q-3 13 -4 20.5t-2 12.5t-1 9t-2 9v45q0 15 7 44.5t16.5 59t19.5 50.5t15 20q2 -1 4.5 2t4.5 4q10 4 22.5 7.5
t23.5 8.5q14 5 19.5 6t15.5 3h22q2 0 0.5 1t0.5 1h28q40 0 74.5 -19.5t55.5 -51.5q4 5 7.5 10.5t8.5 10.5q1 1 4 6t7 10.5t9 10t10 4.5q2 0 4.5 -1.5t4.5 -1.5q1 0 4.5 2t8 4t8.5 4t5 3q7 5 19 11.5t24 8.5q8 2 18 1t12 3h33q2 0 11.5 -1t20.5 -3t20.5 -4t12.5 -5
q2 -1 5 -7.5t8 -14t11.5 -14t13.5 -9.5h38l5 1q6 0 6 -4q0 -9 -2.5 -26.5t-5.5 -34.5t-6 -31t-4 -16q-2 -4 -4 -9.5t-5 -9.5q-10 -14 -22 -22q-2 -2 -4 -3.5t-5 -3.5h-24q-2 0 -1 1t-1 1h-26q-2 0 -1 1t-1 1h-41q-5 0 -14.5 -3t-18.5 -6t-16 -6t-8 -3t-9 2.5t-17 5.5
l-16.5 5.5t-9.5 2.5h-22q-7 -5 -8 -11.5t2 -11.5v-5q-5 1 -9.5 -2t-4.5 -9q0 -13 13.5 -35t31 -42.5t33.5 -34t21 -8.5h56q2 0 1 1t1 1h37q23 0 35.5 -15t12.5 -36q0 -10 -5 -14.5t-13.5 -7t-18 -3t-18.5 -3.5h-21q-2 0 -1 -1t-1 -1h-25q-2 0 -0.5 1t-0.5 1h-24
q-13 0 -32.5 5t-38.5 11.5t-33 12t-16 6.5q-5 2 -11 7t-11 13q-3 5 -6 10.5t-7 11.5z" />
    <glyph glyph-name="Ydieresis" unicode="&#x178;" horiz-adv-x="534" 
d="M474 499q0 -5 -4 -7.5t-8.5 -4t-9 -2.5t-6.5 -1q-5 -2 -9 -3t-8 -6v-26q-11 -8 -19 -17.5t-14 -29.5q-1 -2 -6 -8t-8 -14q-4 -11 -8.5 -28t-9.5 -31q-1 -3 -6 -16t-10 -29.5t-9.5 -33t-4.5 -27.5v-23q0 -2 0 -1t-1 0v-52q0 -2 0 -1t1 1v-38q0 -1 2 -1v-40q0 -2 0.5 -1
t1.5 1v-40q0 -2 -2.5 -6.5t2.5 -6.5h-14q-2 -3 -1 -6.5t-2 -5.5q-2 -1 -3 -0.5t-3 -1.5h-26q-10 0 -17 9t-11.5 21t-7 23t-3.5 14v64q0 2 1 1t1 1v28q0 12 -3.5 26t-10.5 24q-4 5 -9.5 10t-9.5 12q-3 5 -4.5 13t-8.5 11q-5 2 -9 3t-8 6q-3 5 -5.5 12t-4.5 13q-1 2 -1 5.5
v5.5q-2 2 -7.5 4t-9.5 1q3 11 -2 25t-14 29t-19.5 30t-17.5 29q-1 2 -0.5 4t0.5 5q-14 2 -16.5 1t-2.5 10q0 2 1.5 11.5t1.5 11.5q0 11 -11 13t-21 2v38q0 7 8 12t10 8q1 5 0.5 9.5t-0.5 9.5h12q-1 -5 4 -8.5t9 -3.5q2 0 4 0.5t4 0.5q11 0 18.5 -12.5t13.5 -17.5
q1 -6 0 -13.5t-1 -15.5q8 -7 14.5 -15.5t12.5 -17.5q-1 -3 2 -7.5t7 -7.5t9 -5t9 -1q-2 -13 2.5 -24.5t12.5 -20.5t18 -16.5t19 -13.5q2 -7 2.5 -12.5t2.5 -11.5q7 -2 18 0v-24h24q11 13 20.5 22t13.5 20q6 17 14.5 40t15.5 44q0 1 4.5 9.5t9 19.5t8.5 21t4 13v26
q0 27 22 44q4 3 10.5 3.5t10.5 3.5h20q1 0 3.5 -1.5t7.5 1.5v-14h14q-2 -3 -1.5 -9.5t2.5 -10.5v-34z" />
    <glyph glyph-name="circumflex" unicode="&#x2c6;" horiz-adv-x="522" 
d="M359 628q0 -13 -6.5 -24t-10.5 -13q-5 -2 -18 -7t-18 -5h-5t-5 2q-4 4 -12 10t-15.5 12t-13 10l-5.5 4q-10 0 -18.5 -5.5t-17.5 -12t-18.5 -12t-20.5 -5.5q-6 0 -14 4.5t-15 11t-12 14t-5 13.5t5.5 12t13 10.5t15 7.5t10.5 3q1 0 3 -2t4 -2q5 0 12 6t14.5 13.5t15 13.5
t14.5 6t14 -3.5l11 -5.5q2 -4 7 -6.5t9 -5.5q8 -6 17.5 -12.5t20.5 -11.5q6 -3 14 -4t14.5 -2t11 -4t4.5 -10z" />
    <glyph glyph-name="ring" unicode="&#x2da;" 
d="M218 563q1 -1 1 -4v-12q2 -4 2.5 -11.5t1.5 -11.5q1 -2 5 -4t3 -4q-2 -2 1.5 -3.5t8.5 -3.5q13 -5 26 -5l10 2q4 1 9 2q7 6 16 23t9 30v14q0 16 -13 27.5t-35 11.5h-10q-8 0 -21 -7.5t-13 -19.5v-13q0 -3 -1 -4v-7zM261 665l19 -1q12 -1 25.5 -5.5t25.5 -13t19.5 -21
t7.5 -29.5v-14q0 -4 -2 -5l2 -1v-4q0 -5 0.5 -12t0.5 -17q-1 -24 -7.5 -43.5t-30.5 -34.5q-8 -2 -15.5 -4t-16.5 -4q-6 0 -9 -0.5t-5 -1t-5 -1t-8 0.5q-5 -2 -9 -0.5t-3 -0.5l-14 8q-8 5 -17.5 9.5t-17.5 9t-14.5 9.5t-9.5 12q-5 12 -9.5 21t-2.5 23q2 6 1 8v22q0 17 4 27.5
t9 19.5l8 8q8 8 8 9l4 6q3 3 6 5t7 5q9 8 14.5 8.5t17.5 -0.5q3 0 4 1h12z" />
    <glyph glyph-name="tilde" unicode="&#x2dc;" 
d="M131 616q3 1 7 1h6t4 -1t0.5 0.5t-0.5 4t2 4.5t8 1q9 -2 9.5 1t6.5 7q7 4 11.5 8.5t13.5 4.5h31q7 0 15 -5q4 -3 10 -5l26 -8l6 -6l4.5 -4.5t3.5 -4.5q2 -4 7 -5t16 -9q5 -4 8.5 -5t5.5 -1q3 0 3 1q1 0 3 1q4 2 8 7q5 5 11.5 8.5t8.5 18.5q1 11 30 11q7 0 10.5 -4.5
t4.5 -10t1 -11v-7.5q0 -4 -2.5 -14t-4.5 -15t-5.5 -9t-8.5 -12t-15.5 -12.5t-13.5 -6.5q-4 -2 -17 -2h-15l-37 16q-12 5 -16.5 7.5t-6.5 3.5t-2.5 2t-5.5 4q-9 5 -13.5 8.5t-18.5 7.5q-7 2 -9.5 2.5t-4 0.5t-2.5 0.5t-4 0.5q-7 2 -9.5 -2t-6.5 -6t-11.5 -7t-9.5 -10
q-2 -6 -7 -10t-12 -11q-6 -6 -10 -6q-2 0 -4 1q-3 1 -7 2q-3 1 -7 1.5t-9 1.5q-4 1 -5.5 2t-2.5 2t-2 3t-5 5q-7 5 -4 11.5t3 11.5t6 13q3 4 5 8l14 12z" />
    <glyph glyph-name="quoteleft" unicode="&#x2018;" horiz-adv-x="252" 
d="M59 466q-4 7 -2 6.5t1 6.5q-2 11 2.5 18t10.5 14t12.5 15.5t9.5 23.5q5 6 10.5 13t8.5 16q2 5 7 12.5t8 14.5q1 2 3 11.5t5 21t6.5 21t6.5 12.5q5 2 7.5 2.5t10.5 0.5q4 -4 8 -8.5t7 -8.5q1 -1 8 -5.5t8 -5.5q3 -5 2.5 -10t-3.5 -9.5t-6 -8.5t-5 -7q-3 -6 -5.5 -13.5
t-6.5 -14.5q-7 -16 -7.5 -20t-6.5 -11q-9 -10 -19 -20t-15 -26q-1 -4 -1.5 -11.5t-2 -15.5t-4.5 -16t-10 -13q0 -2 1 -3l1 -1q-2 0 -9 1t-15 3.5t-15.5 6t-10.5 8.5z" />
    <glyph glyph-name="quoteright" unicode="&#x2019;" horiz-adv-x="252" 
d="M195 655q2 -3 2.5 -4t0 -2l-1 -2t0.5 -5q2 -11 -2.5 -18t-11 -13.5t-13 -15.5t-9.5 -24q-5 -6 -10.5 -13t-8.5 -16q-1 -4 -6 -12t-8 -15q-1 -2 -3 -11.5t-5 -21t-6.5 -21t-7.5 -12.5q-4 -2 -6.5 -2.5t-10.5 0.5q-5 3 -9 7.5t-7 8.5q0 1 -7.5 5.5t-7.5 5.5q-7 11 0.5 19.5
t10.5 15.5q3 6 6 13.5t6 14.5q4 8 5.5 12.5l2.5 7.5t2.5 5.5t4.5 5.5q9 10 18.5 20.5t14.5 25.5q2 5 2.5 12t1.5 15.5t4 16t10 13.5v2q0 1 -1 2q2 0 8.5 -1.5t14.5 -4t15.5 -6t10.5 -8.5z" />
    <glyph glyph-name="quotedblleft" unicode="&#x201c;" horiz-adv-x="397" 
d="M59 466q-4 7 -2 6.5t1 6.5q-2 11 2.5 18t10.5 14t12.5 15.5t9.5 23.5q5 6 10.5 13t8.5 16q2 5 7 12.5t8 14.5q1 2 3 11.5t5 21t6.5 21t6.5 12.5q5 2 7.5 2.5t10.5 0.5q4 -4 8 -8.5t7 -8.5q1 -1 8 -5.5t8 -5.5q3 -5 2.5 -10t-3.5 -9.5t-6 -8.5t-5 -7q-3 -6 -5.5 -13.5
t-6.5 -14.5q-7 -16 -7.5 -20t-6.5 -11q-9 -10 -19 -20t-15 -26q-1 -4 -1.5 -11.5t-2 -15.5t-4.5 -16t-10 -13q0 -2 1 -3l1 -1q-2 0 -9 1t-15 3.5t-15.5 6t-10.5 8.5zM204 466q-4 7 -2 6.5t0 6.5q-1 11 3 18t10.5 14t13 15.5t8.5 23.5q5 6 11 13t9 16q1 5 6 12.5t8 14.5
q1 2 3 11.5t5 21t6.5 21t7.5 12.5q4 2 6.5 2.5t10.5 0.5q4 -4 8 -8.5t8 -8.5q0 -1 7 -5.5t8 -5.5q7 -11 -0.5 -19.5t-11.5 -15.5q-2 -6 -5 -13.5t-6 -14.5q-4 -8 -5.5 -12.5l-2.5 -7.5t-2.5 -5.5t-4.5 -5.5q-9 -10 -18.5 -20t-14.5 -26q-2 -4 -2.5 -11.5t-1.5 -15.5t-4 -16
t-10 -13q0 -1 0.5 -1.5t0.5 -1.5v-1q-1 0 -8 1t-15 3.5t-15.5 6t-10.5 8.5z" />
    <glyph glyph-name="quotedblright" unicode="&#x201d;" horiz-adv-x="397" 
d="M340 655q2 -3 2.5 -4t0 -2l-1 -2t-0.5 -5q2 -11 -2.5 -18t-10.5 -13.5t-12.5 -15.5t-9.5 -24q-5 -6 -11 -13t-8 -16q-2 -4 -7 -12t-8 -15q-1 -2 -3 -11.5t-5 -21t-6.5 -21t-7.5 -12.5q-4 -2 -6.5 -2.5t-10.5 0.5q-4 3 -8 7.5t-7 8.5q-1 1 -8 5.5t-8 5.5q-7 11 0.5 19.5
t11.5 15.5q3 6 5.5 13.5t6.5 14.5q4 8 5.5 12.5l2.5 7.5t2 5.5t4 5.5q9 10 19 20.5t15 25.5q2 5 2 12t1.5 15.5t4.5 16t10 13.5q0 1 -1 2t-1 2q2 0 8.5 -1.5t15 -4t16 -6t10.5 -8.5zM195 655q2 -3 2.5 -4t0 -2l-1 -2t0.5 -5q2 -11 -2.5 -18t-11 -13.5t-13 -15.5t-9.5 -24
q-5 -6 -10.5 -13t-8.5 -16q-1 -4 -6 -12t-8 -15q-1 -2 -3 -11.5t-5 -21t-6.5 -21t-7.5 -12.5q-4 -2 -6.5 -2.5t-10.5 0.5q-5 3 -9 7.5t-7 8.5q0 1 -7.5 5.5t-7.5 5.5q-7 11 0.5 19.5t10.5 15.5q3 6 6 13.5t6 14.5q4 8 5.5 12.5l2.5 7.5t2.5 5.5t4.5 5.5q9 10 18.5 20.5
t14.5 25.5q2 5 2.5 12t1.5 15.5t4 16t10 13.5v2q0 1 -1 2q2 0 8.5 -1.5t14.5 -4t15.5 -6t10.5 -8.5z" />
    <glyph glyph-name="Euro" unicode="&#x20ac;" horiz-adv-x="520" 
d="M323 230q0 -5 -4.5 -9t-9.5 -4q-1 0 -2 3.5t-2.5 5.5t-2.5 1.5t-1 -8.5q0 -1 -12 -2.5t-26.5 -2.5t-27.5 -2t-15 -1l-78 -1h-3q-3 0 -6 1v-22q0 -1 1 -1.5t1 -5.5q14 -2 26 -15q5 -7 9.5 -20.5t9.5 -21.5q7 -11 18.5 -17.5t12.5 -18.5q2 -1 3.5 -1t3.5 -2h36q2 0 1 -0.5
t1 -0.5h30q32 0 51.5 19t30.5 42q5 0 6.5 3.5t6.5 3.5q5 7 4 11.5t5 9.5q1 3 11.5 7t10.5 7l33 -7q2 -7 6 -14t6.5 -13.5t1.5 -12t-9 -9.5q0 -13 -7.5 -27.5t-18 -28t-22 -24.5t-19.5 -16q-6 -4 -16.5 -7t-22.5 -5.5t-23 -4.5t-17 -3h-59q-24 0 -51 10t-51 26t-41 37t-20 43
q-1 2 -4.5 6.5t-7.5 9.5q-4 11 -4 26t-3 27v10q-7 0 -8 -1h-63q-8 4 -8 9t-3 9v17q0 13 10.5 24t21.5 15h46v25q0 2 1 1t1 1v30h-17q-2 0 -9.5 -2t-21.5 -2h-9t-13 6q-2 1 -5 14.5t-3 19.5q0 8 3.5 15t11.5 7h4t3 -1q11 3 22.5 5t22.5 5h20q5 21 11.5 43t13 40.5t12.5 31.5
t10 17q2 2 4 7t5 10.5t7 9.5t8 4q2 0 12 -2t12 -2q10 0 12.5 4t12.5 10q5 1 11.5 2.5t13.5 3.5q2 2 5 7t6 5q1 0 3 -2h31q2 0 20.5 -2.5t40 -5.5t40 -5.5t20.5 -2.5q2 -1 4.5 -2.5t4.5 -2.5q5 -7 8.5 -14t5.5 -15q22 0 40.5 -12t18.5 -36q0 -18 -10.5 -35t-30.5 -17
q-22 0 -36.5 14t-27.5 31t-26.5 31t-33.5 14h-32q-7 0 -15 -1t-14 -3.5t-9 -7t0 -10.5q-21 -1 -37.5 -11t-29 -25.5t-21 -35.5t-12.5 -41h4h7h15h15.5h9.5q7 1 19 2t17 5l99 -1q1 -1 3 -2t4 -3t2 -3.5t2 -3.5v-29q0 -5 -4 -11t-10 -11.5t-13.5 -9t-14.5 -3.5q-2 0 -2.5 0.5
t-2.5 1.5l-74 5q-1 0 -9 -0.5t-18 -1.5t-18 -1.5t-9 -0.5h-26v-34q0 -2 0.5 -1t1.5 1v-20q4 0 9 -1t9 -1q4 -1 14.5 -1.5t22 -0.5h21h10.5q3 0 14 0.5t24.5 1.5t26 1.5t18.5 0.5q17 0 20.5 -6.5t7.5 -21.5v-23z" />
    <glyph glyph-name="fi" unicode="&#xfb01;" horiz-adv-x="588" 
d="M466 167q0 -2 -0.5 -0.5t-1.5 0.5v-33q0 -1 -1.5 -11.5t-4 -25.5t-6 -32.5t-7.5 -32t-8 -24.5t-9 -10t-12 4.5t-13 10.5t-10 12.5t-4 11.5q0 2 1.5 11t3 19.5t3 19.5t1.5 12v25q0 2 1 1t1 1v74q0 2 -1 0.5t-1 0.5v31q0 2 -1 0.5t-1 0.5v27q0 2 -1 0.5t-1 0.5v27
q0 2 -0.5 1t-0.5 1v99q0 14 4 21t17 22q1 3 1 6.5v6.5h19q3 -5 7.5 -11t9.5 -8q2 -2 4 -6t5 -3v-100q0 -2 0.5 -1t1.5 1v-42q0 -1 2 -1v-50q0 -1 2 -1v-56zM485 639q0 -12 -3.5 -25.5t-10 -24t-16.5 -17.5t-24 -7q-15 0 -20.5 5t-7.5 13.5t-2.5 19t-4.5 21.5v22q0 13 11 29
t26 14q1 3 1 7v7q16 -7 26 -13t15.5 -12.5t7.5 -15.5t2 -23zM244 594q0 -20 -11.5 -42.5t-22.5 -31.5l-9 -6t-12.5 -8t-11.5 -7t-5 -4v-31q0 -7 6 -11.5t14.5 -8t17 -6t13.5 -5.5q7 -4 8 -10t5 -11v-24q0 -2 -3 -8t-3 -8q-7 -8 -14.5 -15t-15.5 -12h-24v-170q0 -2 -0.5 -1
t-1.5 0v-47q0 -2 -0.5 -1t-1.5 0v-31q0 -2 -0.5 -0.5t-1.5 0.5v-26q0 -2 -0.5 -9.5t-1.5 -17t-2 -20t-2 -18.5q-2 -2 -4.5 -2t-4.5 -2h-31q-13 0 -29.5 11.5t-16.5 25.5l9 75v20q0 2 0.5 0.5t0.5 0.5v32q0 2 1 1t1 1v100q0 2 -1 1t-1 1v30q0 5 -1.5 13t-3.5 25
q-3 26 -5.5 42t-5.5 28t-6 22.5t-7 23.5q4 0 10.5 4t12.5 10t10.5 13.5t4.5 16.5v47q5 -2 10.5 4.5t10.5 4.5q3 12 11.5 20.5t17.5 16.5t16 17.5t6 23.5h11q3 0 4 -2t12 -2t13.5 4.5t9.5 4.5q4 0 10.5 -2.5t13.5 -2.5q0 -2 -0.5 -4.5t1.5 -4.5v-28z" />
    <glyph glyph-name="fl" unicode="&#xfb02;" horiz-adv-x="611" 
d="M509 22q0 -14 -10 -18t-19 -4q-15 0 -30.5 7.5t-28 19.5t-21.5 26.5t-12 27.5v22q0 2 1 0.5t1 0.5v31q0 2 1 0.5t1 0.5v27q0 2 0.5 0.5t0.5 0.5v27q0 2 1 0.5t1 0.5v135q0 2 -1 0.5t-1 0.5v90q0 2 -0.5 1t-0.5 1v39q0 2 0.5 0.5t0.5 0.5v59q0 2 1 0.5t1 0.5v27q0 2 1 0.5
t1 0.5v22q0 5 1.5 19.5t4 31t4.5 30.5t2 17q9 8 13 13.5t12 5.5q2 0 13.5 -3.5t20.5 -6.5q5 -2 5 -4t2 -4v-39q0 -2 -0.5 -0.5t-1.5 0.5v-42q0 -2 -0.5 -1.5t-0.5 -0.5l-1 -50q0 -1 -1 -1t-1 -2v-24q0 -2 -0.5 -1t-1.5 0v-22q0 -2 0 -1t-1 0v-22q0 -2 -0.5 -1t-1.5 0v-22
q0 -2 -0.5 -1t-1.5 0v-23q0 -2 -0.5 -1t-1.5 0v-26q0 -2 -0.5 -1t-1.5 0v-34q0 -2 0 -1t-1 0v-124q0 -1 1 -1v-24q0 -3 1 -13.5t4 -20.5q2 -4 3 -16t3 -18q2 -5 3 -12t3 -13q1 -3 6.5 -14t11.5 -24.5t11 -27.5t5 -23zM244 594q0 -20 -11.5 -42.5t-22.5 -31.5l-9 -6t-12.5 -8
t-11.5 -7t-5 -4v-31q0 -7 6 -11.5t14.5 -8t17 -6t13.5 -5.5q7 -4 8 -10t5 -11v-24q0 -2 -3 -8t-3 -8q-7 -8 -14.5 -15t-15.5 -12h-24v-170q0 -2 -0.5 -1t-1.5 0v-47q0 -2 -0.5 -1t-1.5 0v-31q0 -2 -0.5 -0.5t-1.5 0.5v-26q0 -2 -0.5 -9.5t-1.5 -17t-2 -20t-2 -18.5
q-2 -2 -4.5 -2t-4.5 -2h-31q-13 0 -29.5 11.5t-16.5 25.5l9 75v20q0 2 0.5 0.5t0.5 0.5v32q0 2 1 1t1 1v100q0 2 -1 1t-1 1v30q0 5 -1.5 13t-3.5 25q-3 26 -5.5 42t-5.5 28t-6 22.5t-7 23.5q4 0 10.5 4t12.5 10t10.5 13.5t4.5 16.5v47q5 -2 10.5 4.5t10.5 4.5
q3 12 11.5 20.5t17.5 16.5t16 17.5t6 23.5h11q3 0 4 -2t12 -2t13.5 4.5t9.5 4.5q4 0 10.5 -2.5t13.5 -2.5q0 -2 -0.5 -4.5t1.5 -4.5v-28z" />
    <glyph glyph-name="glyph164" horiz-adv-x="498" 
d="M431 328q0 -1 -1 -4l-2 -6q-9 -15 -22 -17t-24 -5h-32q-2 0 -1 1t-1 1h-29q-8 0 -18 2.5t-18 2.5q-1 0 -1 -2h-144q-2 0 -1 -0.5t-1 -0.5h-23q-2 0 -4.5 -1t-4.5 -1q-21 0 -28 14.5t-7 31.5t8 33t27 16q5 0 11.5 -2t8.5 -3q5 -1 9.5 -0.5t7.5 -1.5h157q2 0 1 1t1 1h39
q2 0 1 0.5t1 0.5h21q8 0 20.5 3.5t21.5 3.5q10 0 16 -3.5t11 -17.5v-47z" />
    <glyph glyph-name="glyph165" horiz-adv-x="499" 
d="M388 188q0 -4 -5.5 -12.5t-13 -17t-15 -14.5t-12.5 -6q-4 0 -7.5 5t-12.5 11q-5 3 -14.5 8.5t-20 12.5t-21 14.5t-17.5 15.5q-4 -4 -14.5 -15.5t-23 -23t-26.5 -20.5t-25 -9q-10 0 -18.5 5.5t-15 14t-10.5 18t-4 16.5v9.5t5 13.5q0 1 11 7t24 14.5t23.5 17.5t10.5 16
q0 2 -11.5 12t-25.5 23t-25.5 24.5t-11.5 15.5q0 7 7.5 16t17.5 17t20.5 13.5t16.5 5.5q5 0 14.5 -8t19.5 -18.5t19 -20.5t12 -13q4 0 9 -1t7 -1q5 0 14 9t20 19.5t22.5 19t21.5 8.5q6 0 14.5 -5.5t17 -13t14.5 -15t6 -12.5q0 -1 -4.5 -7l-10.5 -14t-12.5 -15.5t-10.5 -10.5
q-10 -8 -15.5 -12t-9 -5.5t-6.5 -2.5t-9 -4q-3 -10 9.5 -20.5t28 -21t29.5 -21.5t14 -22z" />
    <glyph glyph-name="glyph166" horiz-adv-x="482" 
d="M439 358q0 -2 -2.5 -11t-5.5 -19.5t-6.5 -21t-5.5 -15.5q-5 -14 -12.5 -32t-16 -36.5t-17 -35.5t-15.5 -30q-30 -57 -48 -93.5t-26 -52.5q-11 -23 -18.5 -40t-12 -29.5t-7.5 -23t-6 -20.5q-2 -6 -3.5 -18t-4.5 -26t-7.5 -28.5t-12.5 -25.5q-12 -17 -22.5 -33.5
t-30.5 -16.5q-11 0 -20 3.5t-18 5.5q-5 3 -5.5 8t-2.5 8v24q0 3 4 11l4 8q9 13 21.5 25t21.5 35q2 5 4 16.5t5 20.5q1 2 6 16t11 31.5t10.5 34t4.5 23.5v43q0 4 -2.5 10t-5.5 12.5t-5.5 11.5t-3.5 6q-14 23 -29 45.5t-26 48.5q-8 9 -14 21l-12 24q-12 24 -19 42.5t-18 34.5
q-9 14 -14.5 19.5t-8 8.5t-3.5 5.5t-1 9.5q0 12 7 25t9 21h33q16 0 30.5 -10.5t23.5 -22.5q20 -56 41 -103.5t50 -92.5q5 -8 8.5 -8t5.5 -2q17 2 26 11.5t17 19.5q13 16 21 36t24 51q1 2 7 12.5t13 24t12.5 27t5.5 21.5v25q0 2 -0.5 2t-0.5 2q7 2 21 3t16 1q11 0 16 -3.5
t10 -16.5v-27zM383 637q0 -8 -1.5 -6.5t-4.5 -5.5q-4 -10 -11.5 -13.5t-16.5 -5.5t-19 -6t-21 -15q-8 -3 -16 -5.5t-16 -8.5q-4 -3 -12 -6.5t-15 -8.5q-2 -1 -9 -8t-15.5 -15t-16.5 -14t-13 -6t-7.5 1t-8.5 6q-2 5 -2.5 11t-1.5 11q0 1 -3.5 9t-3.5 9q0 12 11 15.5t18 7.5
q5 3 11.5 8t13.5 9q15 9 17.5 12.5t11.5 5.5q13 3 26.5 6.5t26.5 13.5q4 3 8.5 9t10 12t12 11t15.5 6q1 1 1 2v2q2 -1 7 -5.5t10 -11t9.5 -13.5t4.5 -13z" />
    <glyph glyph-name="glyph167" horiz-adv-x="271" 
 />
    <glyph glyph-name="glyph168" horiz-adv-x="525" 
d="M140 719q0 13 6.5 24t10.5 13q5 2 18 7t18 5h5t5 -2q4 -4 11.5 -10l15 -12t13 -10t6.5 -4q9 0 18 5.5t18 12t18.5 12t20.5 5.5q6 0 13.5 -4.5t15 -11t12.5 -14t5 -13.5t-5.5 -12t-13 -10.5t-15 -7.5t-10.5 -3q-2 0 -4 2t-3 2q-5 0 -12 -6t-14.5 -13.5t-15 -13.5t-14.5 -6
t-14 3.5l-11 5.5q-2 4 -7 6.5t-9 5.5q-9 6 -18.5 12.5t-19.5 11.5q-6 3 -14 4t-14.5 2t-11 4t-4.5 10zM445 212q0 -3 -3 -13t-7 -22l-7.5 -22.5t-4.5 -14.5q-3 -7 -5.5 -16.5t-6.5 -19.5t-9.5 -18.5t-13.5 -14.5q-3 -2 -11 -5.5t-18.5 -7.5t-21.5 -8t-20 -7q-15 -5 -18 -13
q-10 -2 -16 -2.5t-9.5 -1t-6.5 -1t-9 -2.5h-41q-5 0 -22.5 5t-37.5 12t-37.5 13t-22.5 7v28q0 5 0.5 8t3.5 11q20 -2 31 -5t19.5 -7t18 -8t26.5 -9h25q3 0 12.5 2.5t21 5.5t21.5 5t13 2q15 -2 31.5 4.5t30 17.5t22 26t8.5 30v42q0 3 -0.5 9t-0.5 12q-5 2 -8 5.5t-9 2.5
q1 0 1 5q0 7 -6 11.5t-8 6.5q-19 14 -37.5 17.5t-35.5 6.5h-23q-2 0 -1 1t-1 1h-22q-11 0 -29 4.5t-35 9.5t-29.5 10t-14.5 6q-14 10 -18 15.5t-6 13.5l-1.5 3t-1.5 6l-7 21q-2 5 -3.5 12.5t-3.5 14.5v49q0 7 2 16t5 17.5t5.5 14.5t3.5 7q5 1 9.5 0.5t9.5 -0.5q5 10 6.5 17
t3.5 12.5t5.5 11.5t11.5 13q10 10 31.5 13t37.5 7h56q1 0 15 -2.5t31.5 -5t33.5 -5t21 -2.5q12 -10 19.5 -14t7.5 -18q0 -11 -9.5 -21.5t-22.5 -10.5q-11 0 -24 6.5t-17 10.5q-13 2 -25 3.5t-24 3.5h-44q-4 0 -12 -1.5t-14 -3.5q-20 -5 -26.5 -8.5t-16.5 -9.5q-3 -1 -9 -7.5
t-12 -15t-10.5 -17t-4.5 -13.5v-29q0 -2 4 -10t6 -10q23 -32 59.5 -46t78.5 -17h22q55 0 91.5 -28.5t58.5 -79.5v-22z" />
    <glyph glyph-name="glyph169" horiz-adv-x="422" 
d="M94 647q0 12 6.5 23.5t10.5 13.5q3 0 8 2t10.5 4.5t10.5 4t7 1.5h5t5 -2q4 -4 11.5 -10l15 -12t13 -10t6.5 -4q10 0 18.5 5.5t17.5 12t18.5 12t20.5 5.5q6 0 14 -4.5t15 -11.5t12 -14t5 -13q0 -7 -5.5 -13t-13 -10.5t-15 -7t-10.5 -2.5q-2 0 -3.5 2t-3.5 2q-5 0 -12 -6
t-14.5 -13.5t-15 -13.5t-14.5 -6t-14 3.5l-11 5.5q-2 4 -7 6.5t-9 5.5q-9 6 -18 12.5t-20 11.5q-6 3 -14 3.5t-14.5 2t-11 4.5t-4.5 10zM355 84q0 -22 -17 -41.5t-41.5 -33.5t-51 -22t-44.5 -8q-28 0 -59.5 10.5l-52.5 17.5q-1 1 -3.5 11t-2.5 14q0 10 13 14t23 8h77
q3 0 10.5 3.5t9.5 3.5q7 0 16 2.5t16.5 6.5t13 11t5.5 16v22q0 4 -2.5 9.5t-6.5 10t-8 7.5t-6 3q-5 -1 -17.5 1t-20.5 5q-3 2 -9 4.5t-9 7.5q-2 3 -3.5 7.5t-5.5 6.5q-22 10 -34 18t-31 22q-4 3 -15 8.5t-19 10.5q-5 14 -7 28t-6 28v32q0 2 1.5 7.5t4 12.5t4.5 14t3 10
q7 6 16 8t17 5l26 2q-1 10 4.5 10.5t8.5 4.5q-2 2 -3 1.5t-4 2.5h8q1 2 0.5 2.5t-0.5 2.5l63 -1l-62 -4l44 -1q2 0 2 1h27q2 0 1 1t1 1h32q4 0 15.5 -2.5t24 -6.5t22 -9t9.5 -10q0 -3 -3 -9q-2 -4 -4 -7q-1 -9 -1 -14t-1 -12h-18q-2 0 -1 0.5t-1 0.5h-35q-2 0 -1 1t-1 1h-55
q-23 0 -37 -12t-14 -37q0 -12 4 -21.5t7 -11.5q9 -7 23 -14t30 -14.5l32 -15t29 -16.5q9 0 14.5 1.5t10.5 1.5q7 0 11.5 -7t8.5 -15q5 -13 6 -24t5 -22l9 -22.5t5 -27.5z" />
    <glyph glyph-name="glyph170" horiz-adv-x="534" 
d="M474 499q0 -5 -4 -7.5t-8.5 -4t-9 -2.5t-6.5 -1q-5 -2 -9 -3t-8 -6v-26q-11 -8 -19 -17.5t-14 -29.5q-1 -2 -6 -8t-8 -14q-4 -11 -8.5 -28t-9.5 -31q-1 -3 -6 -16t-10 -29.5t-9.5 -33t-4.5 -27.5v-23q0 -2 0 -1t-1 0v-52q0 -2 0 -1t1 1v-38q0 -1 2 -1v-40q0 -2 0.5 -1
t1.5 1v-40q0 -2 -2.5 -6.5t2.5 -6.5h-14q-2 -3 -1 -6.5t-2 -5.5q-2 -1 -3 -0.5t-3 -1.5h-26q-10 0 -17 9t-11.5 21t-7 23t-3.5 14v64q0 2 1 1t1 1v28q0 12 -3.5 26t-10.5 24q-4 5 -9.5 10t-9.5 12q-3 5 -4.5 13t-8.5 11q-5 2 -9 3t-8 6q-3 5 -5.5 12t-4.5 13q-1 2 -1 5.5
v5.5q-2 2 -7.5 4t-9.5 1q3 11 -2 25t-14 29t-19.5 30t-17.5 29q-1 2 -0.5 4t0.5 5q-14 2 -16.5 1t-2.5 10q0 2 1.5 11.5t1.5 11.5q0 11 -11 13t-21 2v38q0 7 8 12t10 8q1 5 0.5 9.5t-0.5 9.5h12q-1 -5 4 -8.5t9 -3.5q2 0 4 0.5t4 0.5q11 0 18.5 -12.5t13.5 -17.5
q1 -6 0 -13.5t-1 -15.5q8 -7 14.5 -15.5t12.5 -17.5q-1 -3 2 -7.5t7 -7.5t9 -5t9 -1q-2 -13 2.5 -24.5t12.5 -20.5t18 -16.5t19 -13.5q2 -7 2.5 -12.5t2.5 -11.5q7 -2 18 0v-24h24q11 13 20.5 22t13.5 20q6 17 14.5 40t15.5 44q0 1 4.5 9.5t9 19.5t8.5 21t4 13v26
q0 27 22 44q4 3 10.5 3.5t10.5 3.5h20q1 0 3.5 -1.5t7.5 1.5v-14h14q-2 -3 -1.5 -9.5t2.5 -10.5v-34zM398 736q0 -8 -1.5 -6.5t-4.5 -5.5q-4 -10 -11.5 -13.5t-16.5 -5.5t-19 -6t-21 -15q-8 -3 -16 -5.5t-16 -8.5q-4 -3 -12 -6.5t-15 -8.5q-2 -1 -9 -8t-15.5 -15t-16.5 -14
t-13 -6t-7.5 1t-8.5 6q-2 5 -2.5 11t-1.5 11q0 1 -3.5 9t-3.5 9q0 12 11 15.5t18 7.5q5 3 11.5 8t13.5 9q15 9 17.5 12.5t11.5 5.5q13 3 26.5 6.5t26.5 13.5q4 3 8.5 9t10 12t12 11t15.5 6q1 1 1 2v2q2 -1 7 -5.5t10 -11t9.5 -13.5t4.5 -13z" />
  </font>
</defs>
</svg>
